<?xml version="1.0" standalone="no"?>
<!DOCTYPE svg PUBLIC "-//W3C//DTD SVG 1.1//EN" "http://www.w3.org/Graphics/SVG/1.1/DTD/svg11.dtd" >
<svg xmlns="http://www.w3.org/2000/svg" xmlns:xlink="http://www.w3.org/1999/xlink" version="1.1">
<metadata>
Created by FontForge 20190801 at Wed Feb 21 19:54:51 2018
 By Unknown
Copyright \(c\) 2018 by Mega Type. All rights reserved.
</metadata>
<defs>
<font id="ReadingBold" horiz-adv-x="414" >
  <font-face 
    font-family="Reading Bold"
    font-weight="400"
    font-stretch="normal"
    units-per-em="1000"
    panose-1="2 0 5 6 2 0 0 2 0 4"
    ascent="800"
    descent="-200"
    x-height="180"
    cap-height="663"
    bbox="-634 -491 1837 1029"
    underline-thickness="50"
    underline-position="-100"
    unicode-range="U+000D-E05E"
  />
<missing-glyph horiz-adv-x="245" 
 />
    <glyph glyph-name="a_a" unicode="aa" horiz-adv-x="515" 
d="M520 166l1 1c2 2 5 2 7 2c7 0 10 -4 10 -13c-27 -52 -87 -160 -145 -160c-43 0 -55 41 -55 89c0 16 -2 4 0 20c-15 -32 -33 -57 -53 -57c-24 0 -34 27 -34 59c0 10 -2 0 0 10c-29 -47 -65 -91 -112 -91c-48 0 -59 36 -59 71v7c0 10 -2 -7 0 3c-15 -34 -33 -59 -54 -59
c-24 0 -34 27 -34 59c0 57 31 134 72 134c11 0 21 -6 32 -21v1c2 4 7 8 11 8c8 0 16 -6 16 -15l-3 -17c-7 -35 -15 -74 -15 -108c0 -23 7 -44 34 -44c53 0 86 62 114 116c23 42 42 80 69 80c12 0 22 -4 33 -20c2 5 6 8 12 8c7 0 15 -4 15 -13c0 -13 -3 -31 -7 -51
c-5 -28 -12 -61 -12 -88c0 -35 7 -62 30 -62c45 0 102 105 127 151zM26 68c24 0 49 76 63 126c-9 20 -18 28 -24 28c-27 0 -47 -80 -47 -126c0 -17 2 -28 8 -28zM285 68c24 0 49 76 63 126c-9 20 -17 28 -24 28c-26 0 -47 -81 -47 -127c0 -17 3 -27 8 -27z" />
    <glyph glyph-name="a_t" unicode="at" horiz-adv-x="549" 
d="M552 161v1c1 1 5 3 7 3c5 0 10 -4 10 -13l-7 -14c-39 -73 -140 -256 -204 -256c-41 0 -55 58 -55 139c0 59 7 132 17 203c-41 -128 -99 -242 -169 -242c-59 0 -72 62 -72 109c0 15 -2 2 0 14c-15 -32 -33 -57 -53 -57c-24 0 -34 27 -34 59c0 57 31 134 72 134
c11 0 21 -6 32 -21v1c2 4 7 8 11 8c8 0 16 -6 16 -13c0 -13 -3 -30 -7 -49c-5 -26 -11 -58 -11 -83c0 -33 6 -83 48 -83c88 0 165 266 202 431c-45 -4 -110 -10 -155 -13c-5 0 -9 5 -9 10s2 8 7 10l161 13c1 8 4 15 5 23c6 36 18 86 26 86c4 0 9 -2 11 -7
c-2 -16 -7 -51 -16 -101l100 9c7 0 10 -5 10 -10s-4 -10 -9 -10c-36 -2 -69 -6 -105 -8c-22 -126 -53 -315 -53 -431c0 -61 8 -101 30 -101c50 0 143 169 183 240h-1c4 8 9 14 12 19zM26 68c24 0 49 76 63 126c-9 20 -18 28 -24 28c-27 0 -47 -80 -47 -126
c0 -17 2 -28 8 -28z" />
    <glyph glyph-name="b_b" unicode="bb" horiz-adv-x="476" 
d="M477 159l2 2c2 2 5 2 7 2c5 0 9 -6 9 -13c-23 -45 -73 -73 -118 -93c-11 -42 -34 -78 -69 -78c-17 0 -33 10 -33 30c0 30 38 44 66 54h-1l12 5c4 19 6 37 6 53c0 27 -5 48 -12 48c-26 0 -57 -96 -77 -158c-11 -33 -18 -56 -24 -56c-13 0 -13 40 -13 75c0 29 0 51 3 89
c-26 -31 -61 -47 -96 -63c-11 -41 -35 -77 -69 -77c-18 0 -34 10 -34 30c0 31 39 46 67 56c4 2 8 3 11 4c4 18 5 38 5 54c0 26 -4 46 -12 46c-28 0 -60 -84 -80 -133c-8 -20 -15 -37 -20 -37c-13 0 -13 42 -13 77c0 178 49 565 178 565c32 0 41 -28 41 -54
c0 -109 -161 -389 -187 -434l-9 -103l-8 1l10 24c20 46 49 113 88 113c27 0 40 -34 40 -74c0 -11 -1 -23 -2 -33c37 18 74 40 92 77v-2c16 205 67 485 174 485c31 0 41 -27 41 -54c0 -111 -162 -390 -187 -434c-5 -56 -7 -79 -8 -116c18 56 53 151 89 151
c27 0 39 -33 39 -73c0 -12 0 -22 -2 -34c39 18 76 41 94 78zM411 622c-95 0 -133 -328 -143 -426c51 91 165 300 165 391c0 15 -4 35 -22 35zM173 622c-96 0 -134 -330 -144 -427c50 87 165 301 165 392c0 15 -3 35 -21 35zM68 -2c20 1 34 25 42 54l4 -5s2 -1 1 -1
c-19 -7 -60 -20 -60 -37c0 -7 6 -11 13 -11zM307 -2c18 1 31 21 39 47c-1 -1 1 0 0 0h1c-18 -7 -53 -19 -53 -36c0 -7 6 -11 13 -11z" />
    <glyph glyph-name="l_l" unicode="ll" horiz-adv-x="435" 
d="M439 165l1 1c1 1 3 3 7 3c5 0 10 -4 10 -14c-31 -58 -91 -174 -168 -174c-48 0 -71 45 -76 115c-51 -67 -101 -115 -139 -115c-55 0 -78 61 -78 145c0 187 105 490 209 490c41 0 55 -37 55 -70c0 -104 -160 -305 -236 -395v-10c0 -5 -1 -11 -1 -16c0 -51 7 -125 51 -125
c33 0 89 60 139 126c2 107 76 490 208 490c32 0 47 -27 47 -56c0 -86 -166 -342 -229 -430c1 -71 14 -130 50 -130c65 0 122 113 150 165zM240 153l-7 1c53 76 215 322 215 407c0 18 -8 35 -28 35c-103 0 -170 -342 -180 -443zM207 597c-81 0 -163 -236 -180 -413
c74 89 211 265 214 358c0 24 -5 54 -34 55z" />
    <glyph glyph-name="c_c" unicode="cc" horiz-adv-x="444" 
d="M446 161l1 1c1 1 5 3 8 3c5 0 9 -6 9 -13c-29 -56 -98 -119 -165 -119c-54 0 -77 28 -79 79c-37 -53 -92 -108 -151 -108c-58 0 -78 57 -78 104c0 36 18 118 70 118c20 0 31 -15 31 -33c0 -4 -6 -43 -22 -43c-6 0 -11 3 -9 12c8 12 11 23 11 31c0 7 -3 14 -11 14
c-33 0 -42 -74 -42 -98c0 -34 8 -86 52 -86c60 0 124 80 153 132v-1c8 36 30 72 64 72c20 0 31 -15 31 -33c0 -4 -6 -43 -22 -43c-4 0 -9 4 -9 9c0 9 4 16 7 22c3 5 5 9 5 12c0 7 -4 14 -12 14c-27 0 -41 -57 -41 -85c0 -36 11 -70 52 -70c58 0 121 59 147 109z" />
    <glyph glyph-name="e_e" unicode="ee" horiz-adv-x="443" 
d="M446 161l2 2c2 2 5 2 7 2c7 0 9 -4 9 -13c-27 -56 -97 -119 -165 -119c-54 0 -79 35 -79 90c0 1 1 2 1 3l7 -2c-37 -56 -97 -120 -159 -120c-58 0 -78 57 -78 104c0 49 27 134 85 134c16 0 28 -13 28 -29c0 -40 -49 -58 -82 -67c-2 -12 -3 -27 -3 -37c0 -34 8 -86 52 -86
c61 0 126 82 154 134v-1c11 46 41 86 79 86c16 0 28 -13 28 -29c0 -32 -23 -42 -45 -51c-20 -9 -39 -17 -39 -40c0 -36 11 -70 51 -70c59 0 123 59 147 109zM304 223c-19 0 -37 -24 -47 -54c25 7 56 21 56 44c-1 6 -3 10 -9 10zM76 223c-19 0 -38 -25 -48 -55
c24 7 56 22 56 43c0 7 -2 12 -8 12z" />
    <glyph glyph-name="t_t" unicode="tt" horiz-adv-x="475" 
d="M477 160l1 2c1 1 5 3 7 3c5 0 10 -4 10 -13l-7 -14c-39 -73 -140 -256 -204 -256c-40 0 -55 57 -55 137c0 57 5 115 15 185c-43 -143 -102 -275 -170 -275c-66 0 -78 81 -78 133c0 105 25 234 46 341c1 7 4 12 5 20l-156 -14c-5 0 -9 5 -9 10c0 13 129 21 168 23
c5 31 22 119 32 119c5 0 10 -2 10 -8c-1 -26 -7 -53 -12 -80l-5 -29l213 18l20 93c1 4 5 6 9 6c5 0 10 -2 10 -8c-1 -16 -6 -47 -13 -85c0 -1 0 -2 -1 -3l98 8c5 0 9 -5 9 -10s-4 -10 -8 -10l-102 -9l-8 -43c-23 -132 -48 -275 -48 -399c0 -60 8 -100 30 -100
c52 0 149 181 183 242zM243 272c15 56 27 110 37 155c1 6 3 9 4 16l-212 -19l-16 -86c-17 -91 -34 -190 -34 -273c0 -35 6 -117 53 -117c66 0 125 167 168 324z" />
    <glyph glyph-name="d_d" unicode="dd" horiz-adv-x="554" 
d="M560 165v1c1 1 5 3 7 3c7 0 10 -5 10 -14l-6 -8c-30 -55 -112 -199 -167 -199c-34 0 -48 49 -48 119c0 22 -2 15 1 41c-15 -34 -33 -60 -54 -60c-22 0 -30 20 -33 46c-21 -46 -58 -106 -114 -106c-60 0 -74 68 -74 120c0 11 -1 -5 0 4c-15 -36 -34 -64 -56 -64
c-24 0 -34 27 -34 59c0 57 31 134 72 134c10 0 21 -6 31 -19c17 90 85 384 174 384c31 0 41 -29 41 -54c0 -93 -114 -271 -181 -374l-17 -26l1 1c-2 -13 -4 -31 -4 -51c0 -43 9 -94 50 -94c57 0 102 112 119 160c14 39 34 73 63 73c10 0 21 -6 31 -19c17 90 85 384 174 384
c31 0 41 -29 41 -54c0 -95 -119 -278 -186 -381c-4 -7 -9 -13 -13 -19l1 1c-5 -39 -7 -75 -7 -103c0 -50 6 -83 22 -83c47 0 133 157 156 198zM546 587c-74 -1 -136 -301 -151 -392c66 100 173 267 173 357c0 14 -4 35 -22 35zM270 587c-75 -1 -137 -301 -152 -392
c66 100 173 267 173 357c0 14 -4 35 -21 35zM26 68c24 0 49 76 63 126c-9 20 -18 28 -24 28c-27 0 -47 -80 -47 -126c0 -17 2 -28 8 -28zM303 68c24 0 49 76 63 126c-9 20 -18 28 -24 28c-27 0 -47 -80 -47 -126c0 -17 2 -28 8 -28z" />
    <glyph glyph-name="f_g" unicode="fg" horiz-adv-x="499" 
d="M500 160l1 1c1 1 3 3 7 3c5 0 10 -6 10 -13c-32 -62 -93 -106 -162 -148c-8 -99 -54 -484 -211 -484c-53 0 -86 52 -86 126c0 101 67 246 269 363c5 55 8 108 11 163h8l-2 -6c-11 -33 -38 -117 -75 -117c-25 0 -35 26 -35 59c0 5 -1 -2 0 3c-43 -53 -108 -103 -153 -136
c16 -29 21 -62 21 -96c0 -37 -18 -149 -70 -149c-50 0 -56 108 -56 168c0 8 1 16 1 22v7h-1c-28 0 -51 15 -51 46c0 34 26 52 57 56c21 271 112 628 214 628c30 0 39 -30 39 -54c0 -53 -34 -129 -56 -175c-47 -97 -117 -211 -155 -269l1 1c-7 -47 -12 -88 -16 -132
c25 -4 47 -20 61 -37c61 43 139 107 171 161l-1 -1c10 45 36 91 68 91c11 0 20 -6 31 -21c0 1 1 2 1 3c2 5 6 7 12 7s14 -5 16 -9l-4 -69c-2 -45 -3 -82 -7 -127c60 37 113 79 142 135zM145 -462c125 0 171 339 181 448c-189 -110 -249 -249 -249 -338
c0 -66 28 -110 68 -110zM197 637c-65 0 -128 -217 -164 -434c36 58 87 143 129 233c21 43 54 118 54 165c0 13 -2 36 -19 36zM80 -126c0 29 -2 60 -16 87c-20 -16 -39 -25 -60 -31v-8c0 -9 -1 -22 -1 -37c0 -55 4 -137 30 -137c35 0 46 98 47 126zM270 68c28 0 57 98 64 124
c-10 21 -19 30 -25 30c-25 0 -48 -81 -48 -127c0 -16 3 -27 9 -27zM5 8l4 4c-2 -23 -3 -40 -4 -62c15 6 34 15 50 28c-11 15 -28 27 -50 30zM-22 -54v2c1 20 1 38 3 60c-18 -3 -36 -14 -36 -35c0 -19 14 -27 31 -27h2z" />
    <glyph glyph-name="g_g" unicode="gg" horiz-adv-x="512" 
d="M513 160l1 1c1 1 3 3 7 3c5 0 10 -6 10 -13c-32 -62 -93 -106 -162 -148c-8 -99 -54 -484 -211 -484c-53 0 -86 52 -86 126c0 102 67 246 269 363c5 55 8 108 11 163h8l-2 -6c-11 -33 -38 -117 -75 -117c-24 0 -35 25 -35 57c0 7 -1 0 0 7c-35 -43 -83 -77 -136 -109
c-19 -218 -73 -489 -246 -489c-77 0 -108 73 -108 138c0 175 144 253 278 328l49 29c5 61 8 118 10 162h8l-2 -6c-11 -33 -38 -117 -75 -117c-25 0 -35 25 -35 58c0 56 32 135 74 135c11 0 20 -6 31 -21c0 1 1 2 1 3c2 5 6 7 12 7s14 -5 16 -9l-3 -57c-2 -39 -3 -88 -8 -139
c60 37 112 79 142 135v-1c11 43 36 82 66 82c11 0 20 -6 31 -21c0 1 1 2 1 3c2 5 6 7 12 7s14 -5 16 -9l-4 -69c-2 -45 -3 -82 -7 -127c60 37 113 79 142 135zM-135 -466c168 0 205 322 217 452c-13 -7 -25 -16 -38 -23v1c-125 -70 -264 -147 -267 -307
c0 -57 22 -122 88 -123zM158 -462c125 0 171 339 181 448c-189 -110 -249 -249 -249 -338c0 -66 28 -110 68 -110zM283 68c28 0 57 98 64 124c-10 21 -19 30 -25 30c-25 0 -48 -81 -48 -127c0 -16 3 -27 9 -27zM27 68c27 0 55 99 62 125c-10 21 -17 29 -24 29
c-25 0 -47 -80 -47 -126c0 -17 3 -28 9 -28z" />
    <glyph glyph-name="j_g" unicode="jg" horiz-adv-x="441" 
d="M442 160l1 1c1 1 3 3 7 3c7 0 10 -6 10 -13c-32 -62 -93 -106 -162 -148c-8 -99 -54 -484 -211 -484c-53 0 -86 52 -86 126c0 102 67 246 269 363c5 55 8 108 11 163h8l-2 -6c-11 -33 -38 -117 -75 -117c-25 0 -35 25 -35 57c0 9 -2 5 0 15c-34 -39 -88 -76 -133 -107
l-22 -15c-5 -210 -33 -488 -194 -488c-70 0 -103 70 -103 131c0 175 142 270 270 361c1 66 1 124 1 165c0 7 6 10 13 10c12 0 15 -22 15 -49c0 -10 -1 -20 -1 -30v-28v-49c7 5 14 10 21 16c55 39 118 82 143 130v-1c12 41 36 75 64 75c11 0 20 -6 31 -21c0 1 1 2 1 3
c2 5 6 7 12 7s14 -5 16 -9l-4 -69c-2 -44 -4 -82 -7 -127c60 37 112 79 142 135zM-172 -470c133 1 161 251 167 449c-120 -85 -248 -174 -251 -335c0 -52 25 -114 84 -114zM87 -462c125 0 171 339 181 448c-189 -110 -249 -249 -249 -338c0 -66 27 -110 68 -110zM212 68
c26 0 55 92 63 123c-9 21 -18 31 -25 31c-25 0 -47 -80 -47 -127c0 -16 3 -27 9 -27zM9 181h-1c-8 1 -13 6 -13 14s7 14 14 14c8 0 14 -7 14 -14c0 -8 -7 -14 -14 -14z" />
    <glyph glyph-name="j_j" unicode="jj" horiz-adv-x="434" 
d="M9 181h-1c-8 1 -13 6 -13 14s7 14 14 14c8 0 14 -7 14 -14c0 -8 -7 -14 -14 -14zM285 181h-1c-7 1 -12 5 -12 13s4 15 14 15c7 0 13 -7 13 -14c0 -8 -7 -14 -14 -14zM436 160l1 1c1 1 3 3 7 3c5 0 10 -4 10 -13c-31 -59 -90 -106 -156 -154c-3 -107 -61 -480 -210 -480
c-52 0 -86 49 -86 123c0 102 63 246 269 365c1 24 1 47 1 72v68c-61 -45 -138 -87 -205 -126l-45 -26c-5 -210 -34 -483 -194 -483c-70 0 -103 70 -103 131c0 175 142 270 270 361c1 66 1 124 1 165c0 7 6 10 13 10c12 0 15 -29 15 -60c0 -12 -1 -25 -1 -36v-21v-46l42 25
c71 41 145 83 207 129c1 6 7 9 13 9s14 -4 15 -13v-38v-37c0 -24 0 -42 -1 -68c57 40 110 85 137 139zM-172 -470c133 1 161 251 167 449c-120 -85 -248 -174 -251 -335c0 -52 25 -114 84 -114zM88 -465c64 0 151 117 182 449c-188 -110 -250 -250 -250 -338
c0 -66 27 -111 68 -111z" />
    <glyph glyph-name="r_r" unicode="rr" horiz-adv-x="490" 
d="M494 163l1 1c1 1 5 3 8 3c5 0 9 -5 9 -12l-6 -13c-32 -59 -116 -212 -172 -212c-29 0 -37 28 -37 51c0 24 7 52 12 76c4 18 7 34 7 43c0 18 -15 36 -31 53l-12 13c-37 -71 -121 -202 -175 -202c-29 0 -37 28 -37 51s3 41 6 56c2 10 4 20 4 28c0 20 -16 37 -33 55l-15 17
l7 3c0 -1 -2 -6 -2 -7c-8 -15 -15 -33 -24 -33c-5 0 -9 5 -9 10c0 10 7 17 13 28h1c3 4 3 7 5 11c-10 13 -16 27 -16 43c0 18 9 50 36 50c16 0 22 -13 22 -27c0 -20 -11 -46 -19 -63l16 -16c19 -19 40 -40 40 -77c0 -6 0 -17 -1 -25c-1 -13 -3 -31 -3 -53c0 -9 1 -31 12 -31
c44 0 131 148 158 199c-10 14 -16 29 -16 47c0 19 13 46 36 46c17 0 23 -13 23 -27c0 -20 -10 -46 -18 -63l16 -17c19 -20 39 -40 39 -76c0 -8 -2 -23 -5 -37c-4 -22 -8 -50 -8 -72c0 -5 -1 -34 11 -34c37 0 114 136 148 195h-1zM21 198l3 6c6 14 13 33 13 45c0 3 0 7 -3 7
c-10 0 -14 -18 -14 -27c0 -13 3 -22 8 -31h-7zM266 198l3 6c6 14 13 33 13 45c0 3 0 7 -3 7c-10 0 -14 -18 -14 -27c0 -11 4 -21 9 -31h-8z" />
    <glyph glyph-name=".notdef" horiz-adv-x="245" 
 />
    <glyph glyph-name="NULL" horiz-adv-x="0" 
 />
    <glyph glyph-name="NULL" horiz-adv-x="0" 
 />
    <glyph glyph-name="CR" unicode="&#xd;" horiz-adv-x="245" 
 />
    <glyph glyph-name="space" unicode=" " horiz-adv-x="245" 
 />
    <glyph glyph-name="r" unicode="r" horiz-adv-x="245" 
d="M249 163l1 1c1 1 5 3 7 3c5 0 9 -4 9 -13c-26 -49 -118 -224 -177 -224c-29 0 -37 28 -37 51c0 24 7 52 12 76c4 18 7 34 7 43c0 18 -18 36 -33 54l-10 12c-1 -3 -3 -4 -3 -4c-6 -13 -12 -27 -21 -27c-5 0 -9 4 -9 9c0 7 8 18 14 28c3 4 3 7 5 11c-10 13 -16 27 -16 43
c0 18 9 50 36 50c16 0 22 -14 22 -27c0 -20 -11 -46 -19 -63l16 -16c19 -19 40 -40 40 -77c0 -8 -2 -23 -5 -38c-4 -23 -8 -53 -8 -74c0 -9 1 -31 12 -31c37 0 114 136 148 195h-1zM21 198l3 6c6 14 13 33 13 45c0 3 0 7 -3 7c-10 0 -14 -18 -14 -27c0 -13 3 -22 8 -31h-7z
" />
    <glyph glyph-name="a" unicode="a" horiz-adv-x="256" 
d="M261 166l1 1c2 2 5 2 7 2c7 0 10 -4 10 -13c-27 -52 -87 -160 -145 -160c-43 0 -56 40 -56 88c0 16 -2 4 0 20c-15 -33 -31 -56 -52 -56c-24 0 -34 27 -34 59c0 57 31 134 72 134c11 0 21 -6 32 -21v1c2 4 7 8 11 8c8 0 16 -6 16 -13c0 -13 -4 -33 -8 -53
c-5 -27 -11 -60 -11 -85c0 -36 7 -63 30 -63c45 0 102 105 127 151zM26 68c24 0 49 76 63 126c-9 20 -18 28 -24 28c-27 0 -47 -80 -47 -126c0 -17 2 -28 8 -28z" />
    <glyph glyph-name="b" unicode="b" horiz-adv-x="235" 
d="M236 159l2 2c2 2 5 2 7 2c5 0 9 -6 9 -13c-20 -44 -74 -74 -117 -93c-11 -42 -34 -78 -69 -78c-18 0 -34 10 -34 30c0 31 39 46 67 56c4 2 8 3 11 4c4 18 5 38 5 54c0 26 -4 46 -12 46c-25 0 -57 -98 -77 -160c-9 -26 -18 -54 -23 -54c-13 0 -13 43 -13 79
c0 188 48 607 178 607c32 0 41 -28 41 -54c0 -109 -161 -389 -187 -434c-5 -56 -7 -79 -8 -116c18 56 53 151 89 151c27 0 40 -34 40 -74c0 -11 -1 -23 -2 -33c36 17 76 41 93 78zM171 622c-96 0 -134 -330 -144 -427c50 87 165 301 165 392c0 15 -3 35 -21 35zM66 -2
c20 1 34 25 42 54l4 -5s2 -1 1 -1c-19 -7 -60 -20 -60 -37c0 -7 6 -11 13 -11z" />
    <glyph glyph-name="c" unicode="c" horiz-adv-x="225" 
d="M227 161l1 1c2 2 4 2 7 2c5 0 10 -4 10 -13c-32 -59 -102 -147 -176 -147c-58 0 -78 57 -78 104c0 36 18 118 70 118c20 0 31 -15 31 -33c0 -4 -6 -43 -22 -43c-6 0 -11 3 -9 12c8 12 11 23 11 31c0 7 -3 14 -11 14c-32 0 -42 -74 -42 -98c0 -34 8 -86 52 -86
c62 0 129 86 156 138z" />
    <glyph glyph-name="d" unicode="d" horiz-adv-x="277" 
d="M283 165v1c1 1 5 3 7 3c7 0 10 -5 10 -14l-6 -8c-30 -55 -112 -199 -167 -199c-33 0 -47 48 -47 116c0 23 -2 18 1 45c-15 -35 -34 -61 -55 -61c-24 0 -34 27 -34 59c0 57 31 134 72 134c10 0 21 -6 31 -19c17 90 85 384 174 384c31 0 41 -29 41 -54
c0 -93 -114 -271 -181 -374l-17 -26l1 1c-5 -39 -8 -76 -8 -105c0 -48 7 -81 23 -81c46 0 132 157 155 198zM270 587c-75 -1 -137 -301 -152 -392c66 100 173 267 173 357c0 14 -4 35 -21 35zM26 68c24 0 49 76 63 126c-9 20 -18 28 -24 28c-27 0 -47 -80 -47 -126
c0 -17 2 -28 8 -28z" />
    <glyph glyph-name="e" unicode="e" horiz-adv-x="216" 
d="M219 161l1 1c1 1 5 3 8 3c5 0 9 -6 9 -13c-29 -56 -97 -119 -165 -119c-54 0 -79 35 -79 87c0 58 38 122 83 122c17 0 28 -13 28 -29c0 -40 -48 -58 -81 -67c-2 -10 -2 -22 -2 -31c0 -33 13 -63 51 -63c58 0 121 59 147 109zM76 223c-19 0 -37 -25 -47 -55
c24 7 56 22 56 45c0 6 -3 10 -9 10z" />
    <glyph glyph-name="f" unicode="f" horiz-adv-x="192" 
d="M194 161l1 1c1 1 3 3 7 3c5 0 10 -6 10 -13c-32 -60 -81 -129 -132 -175c17 -29 23 -66 23 -99c0 -37 -18 -149 -70 -149c-50 0 -56 108 -56 168c0 8 1 16 1 22v7h-1c-28 0 -51 15 -51 46c0 34 26 52 57 55c21 272 112 629 214 629c30 0 39 -30 39 -54
c0 -53 -34 -129 -56 -175c-47 -97 -117 -211 -155 -269l1 1c-7 -47 -12 -88 -16 -132c25 -4 45 -16 59 -34c50 44 93 110 125 168zM197 637c-65 0 -128 -217 -164 -434c36 58 87 143 129 233c21 43 54 118 54 165c0 13 -2 36 -19 36zM-22 -54v2c1 20 1 38 3 60
c-18 -3 -36 -14 -36 -35c0 -19 14 -27 31 -27h2zM5 8l4 4c-2 -21 -3 -43 -4 -62v-5l-5 4c18 5 36 15 54 31c-11 14 -27 25 -49 28zM80 -126c0 29 -4 64 -16 89c-19 -16 -39 -27 -60 -33v-8c0 -9 -1 -22 -1 -37c0 -55 4 -137 30 -137c35 0 46 98 47 126z" />
    <glyph glyph-name="g" unicode="g" horiz-adv-x="255" 
d="M256 160l1 1c1 1 3 3 7 3c5 0 10 -6 10 -13c-32 -62 -93 -107 -162 -148c-19 -218 -73 -489 -246 -489c-77 0 -108 73 -108 138c0 175 144 253 278 328l49 29c5 61 8 118 10 162h8l-2 -6c-11 -33 -38 -117 -75 -117c-25 0 -35 25 -35 58c0 56 32 135 74 135
c11 0 20 -6 31 -21c0 2 1 3 1 5c1 3 8 4 12 4c8 0 14 -3 16 -8l-3 -57c-2 -39 -3 -88 -8 -139c60 37 113 79 142 135zM-135 -466c168 0 205 322 217 452c-13 -7 -25 -16 -38 -23v1c-125 -70 -264 -147 -267 -307c0 -57 22 -122 88 -123zM27 68c27 0 55 99 62 125
c-10 21 -17 29 -24 29c-25 0 -47 -80 -47 -126c0 -17 3 -28 9 -28z" />
    <glyph glyph-name="h" unicode="h" horiz-adv-x="281" 
d="M282 159l1 1c2 2 4 2 7 2c5 0 10 -4 10 -13c-21 -39 -105 -173 -156 -173c-31 0 -37 31 -37 56c0 26 6 56 11 83c4 23 8 43 8 56c0 5 0 13 -5 13c-33 0 -91 -106 -109 -138c-1 -1 -2 -2 -6 -2c-13 0 -11 19 -11 36v8c0 156 45 553 174 553c29 0 41 -27 41 -52
c0 -103 -133 -343 -187 -434c-3 -30 -4 -39 -5 -60c26 47 68 109 104 109c27 0 28 -32 28 -49c0 -22 -4 -49 -8 -74c-4 -23 -8 -45 -8 -61c0 -8 1 -25 11 -25c39 0 119 130 137 164zM169 622c-84 0 -125 -250 -143 -425c56 97 164 299 164 393c0 14 -4 32 -21 32z" />
    <glyph glyph-name="i" unicode="i" horiz-adv-x="168" 
d="M173 166l1 1c1 1 3 3 7 3c5 0 10 -6 10 -13c-23 -45 -88 -144 -144 -144c-42 0 -52 52 -52 99v5c0 28 0 60 17 60c7 0 14 -5 14 -12c0 -6 -1 -15 -2 -25c-1 -13 -3 -28 -3 -43c0 -32 5 -65 25 -65c46 0 106 96 127 134zM14 181c-7 0 -13 7 -13 14c0 8 7 14 14 14
c6 0 13 -6 13 -13c0 -10 -6 -15 -14 -15z" />
    <glyph glyph-name="j" unicode="j" horiz-adv-x="158" 
d="M9 181c-8 0 -14 7 -14 14c0 8 7 14 14 14c8 0 14 -7 14 -14c0 -8 -7 -14 -14 -14zM160 160l1 1c1 1 3 3 7 3c5 0 10 -4 10 -13c-30 -60 -89 -106 -156 -153c-5 -210 -33 -488 -194 -488c-70 0 -103 70 -103 131c0 175 142 270 270 361c1 66 1 124 1 165c0 7 6 10 13 10
c12 0 15 -22 15 -49c0 -10 -1 -20 -1 -30v-28v-49c58 42 109 84 137 139zM-172 -470c133 1 161 251 167 449c-120 -85 -248 -174 -251 -335c0 -52 25 -114 84 -114z" />
    <glyph glyph-name="k" unicode="k" horiz-adv-x="218" 
d="M220 160l1 1c1 1 5 3 7 3c5 0 10 -4 10 -13c-24 -48 -88 -143 -149 -143c-34 0 -60 19 -73 47l-4 -43c-4 -5 -7 -7 -10 -7c-12 0 -10 16 -10 32v8c0 147 36 561 173 561c37 0 46 -38 46 -68c-3 -100 -108 -259 -174 -358l-14 -22c0 -10 0 -14 -2 -27c25 31 81 67 102 67
c6 0 11 -6 11 -12c0 -5 -13 -12 -30 -22c-31 -17 -77 -43 -78 -68c0 -28 32 -69 63 -69c51 0 109 92 131 133zM165 587c-81 0 -120 -222 -138 -390c64 99 162 249 165 341c0 19 -3 49 -27 49z" />
    <glyph glyph-name="l" unicode="l" horiz-adv-x="219" 
d="M259 542c-3 -105 -161 -304 -235 -391c-1 -13 -1 -23 -1 -34c0 -70 15 -117 49 -117c61 0 116 101 146 156v-1l5 10c2 2 4 4 8 4c5 0 10 -3 10 -13l-7 -12h1c-34 -61 -91 -163 -163 -163c-54 0 -76 62 -76 148c0 187 104 487 209 487c43 0 54 -40 54 -74zM206 597
c-81 0 -163 -236 -180 -413c74 88 211 264 214 358c0 24 -5 54 -34 55z" />
    <glyph glyph-name="m" unicode="m" horiz-adv-x="305" 
d="M307 161l1 1c2 2 4 2 6 2c6 0 11 -3 11 -11l-10 -19h1c-27 -50 -81 -149 -125 -149c-22 0 -30 19 -30 48c0 37 12 87 23 133c9 36 16 70 16 87c0 7 -1 11 -3 11c-23 0 -59 -86 -81 -139c-10 -25 -18 -44 -24 -44c-5 0 -10 3 -10 10c0 3 0 10 1 15c1 11 3 26 3 38
c0 15 -1 28 -7 28c-17 0 -44 -65 -62 -105c-8 -18 -16 -34 -20 -34c-5 0 -10 3 -10 10c0 21 2 46 5 68c2 19 5 40 5 55c0 7 7 12 13 12c7 0 14 -4 14 -14c0 -19 -3 -32 -5 -48l-3 -22l-8 3c18 43 47 94 71 94s30 -20 30 -44v-6l-8 1c24 58 61 141 96 141c18 0 24 -17 24 -42
c0 -32 -11 -78 -20 -122c-8 -39 -16 -76 -16 -97c0 -11 2 -18 7 -18c27 0 82 97 108 144z" />
    <glyph glyph-name="n" unicode="n" horiz-adv-x="228" 
d="M230 161l1 1c2 2 4 2 7 2c5 0 10 -3 10 -12l-6 -10h1c-24 -46 -80 -147 -124 -147c-22 0 -29 19 -29 47c0 25 6 56 11 85c4 24 8 47 8 61c0 9 -2 15 -5 15c-24 0 -57 -73 -78 -116c-9 -19 -13 -35 -21 -35c-5 0 -9 4 -9 9c0 19 2 39 4 58c2 16 4 32 4 47c0 7 7 10 13 10
c7 0 14 -3 14 -12c0 -13 -2 -22 -4 -32l-3 -22l-8 3c21 48 58 110 88 110c22 0 29 -21 29 -49c0 -24 -5 -58 -10 -85c-4 -23 -8 -45 -8 -59c0 -10 1 -16 5 -16c30 0 85 102 107 141c0 1 2 5 3 6z" />
    <glyph glyph-name="s" unicode="s" horiz-adv-x="157" 
d="M160 162l1 1c1 1 3 3 7 3c5 0 10 -6 10 -13c-25 -49 -72 -78 -119 -101c10 -25 18 -54 18 -82c0 -51 -39 -83 -88 -83c-39 0 -73 22 -73 64c0 56 59 85 104 105h1l7 3l-3 10c-12 36 -26 76 -26 115c0 50 23 68 49 68c20 0 38 -16 38 -39c0 -7 -2 -21 -12 -21
c-5 0 -9 5 -9 12c1 3 1 6 1 9c0 12 -9 20 -18 20c-13 0 -27 -14 -27 -49c0 -37 14 -75 28 -109c0 0 1 -3 2 -4c43 22 87 49 109 91zM-12 -94c35 0 61 23 61 59c0 25 -7 50 -15 76c-3 -1 -6 -1 -10 -5c-36 -17 -89 -41 -89 -85c0 -28 25 -44 53 -45z" />
    <glyph glyph-name="t" unicode="t" horiz-adv-x="242" 
d="M245 161v1c1 1 5 3 7 3c5 0 10 -3 10 -12l-7 -12h1c-38 -70 -142 -259 -206 -259c-41 0 -55 58 -55 139c0 121 30 292 54 410l-156 -11c-5 0 -9 4 -9 9s2 8 7 10l162 13l21 103c1 4 5 6 9 6c5 0 10 -2 10 -8c-1 -16 -7 -55 -15 -100l100 9c5 0 9 -5 9 -10s-4 -10 -9 -10
c-35 -2 -69 -6 -104 -8c-22 -126 -54 -315 -54 -431c0 -61 9 -101 31 -101c50 0 143 169 183 240h-1c4 8 9 14 12 19z" />
    <glyph glyph-name="u" unicode="u" horiz-adv-x="316" 
d="M321 166l1 1c2 2 4 2 6 2c5 0 10 -4 10 -13c-23 -43 -85 -160 -145 -160c-40 0 -52 44 -52 95c0 21 -2 15 1 36c-23 -50 -54 -98 -91 -98c-43 0 -53 52 -53 100v4c0 21 0 46 15 46c7 0 13 -6 14 -17c-2 -15 -4 -35 -4 -53c0 -32 5 -61 28 -61c46 0 93 135 106 181
c2 4 8 8 13 8c7 0 14 -3 14 -10c0 -10 -3 -27 -7 -46c-6 -31 -14 -71 -14 -104c0 -35 7 -62 30 -62c47 0 107 112 128 151z" />
    <glyph glyph-name="v" unicode="v" horiz-adv-x="298" 
d="M302 161v1c2 2 4 2 6 2c5 0 10 -6 10 -12c-16 -33 -70 -113 -116 -113c-25 0 -39 21 -45 42c-23 -49 -80 -164 -123 -164c-31 0 -38 60 -38 122c0 24 1 47 2 68c1 16 1 31 1 42c0 4 -1 8 -1 11v6c0 8 4 11 12 11c7 0 16 -4 16 -14c0 -11 -1 -29 -2 -50
c-2 -30 -4 -68 -4 -100c0 -43 3 -77 16 -77c32 0 101 142 115 179c-1 8 -2 23 -2 39c0 34 6 74 33 74c12 0 18 -9 18 -22c0 -29 -21 -75 -28 -91c2 -19 9 -56 30 -56c37 0 84 74 100 102zM182 209c-7 -1 -11 -26 -12 -45c5 14 11 33 11 42c0 2 0 3 1 3z" />
    <glyph glyph-name="w" unicode="w" horiz-adv-x="439" 
d="M441 161l1 1c2 2 4 2 6 2c5 0 11 -6 11 -12c-19 -36 -72 -113 -117 -113c-24 0 -39 21 -46 42c-25 -52 -67 -123 -116 -123c-39 0 -51 41 -51 92c0 20 2 45 5 66c-22 -47 -52 -88 -87 -88c-41 0 -51 45 -51 87v4c0 24 0 58 17 58c7 0 14 -5 14 -12c0 -9 -2 -21 -3 -31
c-2 -11 -3 -21 -3 -31c0 -30 6 -55 25 -55c48 0 94 132 108 181c2 5 8 9 13 9c7 0 14 -5 14 -11c0 -10 -4 -31 -9 -55c-8 -40 -18 -92 -18 -133c0 -36 6 -62 26 -62c42 0 91 94 110 137c-1 6 -2 17 -2 31c0 36 7 83 34 83c10 0 18 -11 18 -22c0 -29 -21 -75 -28 -91
c2 -19 9 -56 30 -56c35 0 82 72 99 102zM322 209c-8 -1 -11 -28 -12 -48c5 15 11 34 11 45c0 2 0 3 1 3z" />
    <glyph glyph-name="x" unicode="x" horiz-adv-x="224" 
d="M227 161l1 1c1 1 3 3 7 3c5 0 10 -4 10 -14c-23 -42 -108 -197 -163 -197c-28 0 -46 26 -58 64c-37 -41 -67 -75 -67 -115c0 -6 -5 -8 -10 -8c-4 0 -9 2 -9 8c0 50 38 91 79 137c-10 40 -14 88 -17 127c0 6 4 11 12 11c14 0 19 -39 23 -76c2 -16 1 -28 4 -39
c37 42 76 91 88 151c1 4 4 6 9 6s10 -4 10 -10c-13 -70 -59 -125 -102 -171c9 -36 21 -66 39 -66c40 0 123 150 144 188z" />
    <glyph glyph-name="y" unicode="y" horiz-adv-x="296" 
d="M298 160l1 1c1 1 5 3 7 3c5 0 10 -4 10 -13c-29 -59 -86 -104 -151 -150c-3 -122 -15 -491 -197 -491c-69 0 -105 67 -105 127c0 171 132 266 254 353l20 15c1 51 1 77 1 114c-20 -42 -54 -91 -90 -91c-40 0 -50 43 -50 85c0 27 0 67 20 67c6 0 11 -4 11 -13
c0 -7 -1 -18 -2 -27c-1 -11 -3 -26 -3 -37c0 -29 5 -56 25 -56c29 0 56 56 75 94c11 21 19 38 27 38c6 0 14 -3 15 -10c-1 -19 -1 -43 -1 -68v-77c57 41 106 84 133 136zM-34 -470c155 0 168 339 171 451c-122 -86 -255 -174 -255 -341c0 -50 28 -109 84 -110z" />
    <glyph glyph-name="q" unicode="q" horiz-adv-x="254" 
d="M257 161l1 1c1 1 3 3 6 3c6 0 11 -7 11 -13l-8 -13c-28 -48 -80 -146 -131 -204c43 -38 60 -119 60 -202c0 -112 -35 -223 -92 -223c-49 0 -61 101 -61 201c0 77 6 149 8 171c-23 2 -33 19 -33 35c0 18 11 36 40 42c4 40 9 81 13 115v1c2 14 0 -6 1 7
c-15 -35 -34 -64 -55 -64c-24 0 -34 27 -34 59c0 57 31 134 72 134c11 0 21 -6 32 -21v1v-1c1 6 7 9 13 9c7 0 14 -5 14 -11c0 -16 -5 -49 -11 -93c-6 -40 -12 -84 -18 -136c13 -1 24 -4 36 -12c53 61 96 141 136 214zM103 -471c44 0 69 96 69 198c0 78 -17 159 -49 193
c-13 -14 -28 -27 -44 -34c0 -3 -1 -6 -1 -9c-4 -40 -11 -120 -11 -195c0 -80 8 -153 36 -153zM17 38c24 0 49 76 63 126c-9 20 -18 28 -24 28c-27 0 -47 -80 -47 -126c0 -17 3 -28 8 -28zM52 -99l5 37c-15 -4 -20 -12 -20 -20c0 -7 7 -14 15 -17zM84 -60l-4 -31
c10 6 19 14 28 23c-8 4 -14 7 -24 8z" />
    <glyph glyph-name="A" unicode="A" horiz-adv-x="697" 
d="M698 158l1 1c1 1 5 3 8 3c5 0 9 -4 9 -14c-31 -59 -90 -135 -165 -135c-86 0 -104 152 -107 334c-31 -11 -67 -24 -103 -40c-35 -108 -135 -419 -274 -419c-49 0 -71 46 -71 89c0 156 193 278 320 339l34 104c33 100 64 190 93 242c-2 61 -7 175 -37 222v-1
c-2 2 -2 4 -2 6c0 5 5 9 10 9c2 0 5 0 6 -1c39 -62 43 -205 43 -357v-110v-56c1 0 2 1 3 1h-1l21 6c7 0 11 -3 11 -10c0 -4 -1 -7 -3 -8l-30 -9c2 -173 15 -321 86 -321c66 0 120 71 148 125zM65 -93c115 0 210 289 242 383c-118 -59 -292 -173 -292 -312
c0 -30 15 -71 50 -71zM347 323l-6 5c37 17 71 29 103 40v59v111c0 34 1 48 0 80c-18 -46 -36 -102 -56 -166c-13 -41 -26 -85 -41 -129z" />
    <glyph glyph-name="B" unicode="B" horiz-adv-x="530" 
d="M530 157l1 1c1 1 5 3 7 3c5 0 10 -4 10 -13c-28 -58 -93 -86 -171 -107c-45 -103 -148 -258 -274 -258c-52 0 -107 27 -107 86c0 115 178 152 297 174c25 5 49 13 67 13c15 38 42 128 42 196c0 57 -17 103 -72 103c-46 0 -101 -32 -140 -57h1c-2 -2 -4 -2 -6 -2
c-5 0 -9 4 -9 9c0 3 0 7 4 9v-1c78 55 177 162 177 265c0 32 -15 54 -48 54c-35 0 -73 -26 -104 -55c-15 -70 -24 -153 -34 -234c-16 -128 -33 -262 -63 -341c-2 -3 -6 -7 -10 -7s-9 2 -9 10l1 3c24 82 41 217 58 351c9 69 14 124 24 184c-9 -10 -16 -22 -23 -31
c-14 -19 -26 -36 -32 -36c-5 0 -10 4 -10 9c0 1 0 1 3 6c18 26 45 63 70 89c15 64 36 123 63 154c1 1 5 3 7 3c5 0 9 -4 9 -9c0 -3 0 -5 1 -3c-19 -25 -35 -67 -47 -115c29 24 63 41 97 41c45 0 74 -31 74 -76c0 -80 -61 -159 -117 -214c20 8 42 13 64 13
c74 0 97 -57 97 -125c0 -67 -22 -142 -40 -185c68 20 119 46 142 93zM103 -198c110 0 201 138 246 232l-54 -11c-110 -21 -280 -52 -280 -152c0 -47 46 -69 88 -69z" />
    <glyph glyph-name="C" unicode="C" horiz-adv-x="433" 
d="M435 160l1 1c2 2 4 2 7 2c5 0 10 -4 10 -13c-56 -101 -158 -290 -292 -290c-114 0 -165 134 -165 291c0 222 102 492 275 492c74 0 123 -58 123 -132c0 -6 0 -12 -10 -12c-4 0 -9 4 -9 9c0 63 -38 116 -103 116c-156 0 -249 -263 -249 -478c0 -144 43 -267 137 -267
c123 0 223 185 275 281z" />
    <glyph glyph-name="D" unicode="D" horiz-adv-x="806" 
d="M808 159l1 1c1 1 5 3 7 3c5 0 10 -4 10 -13c-27 -58 -92 -85 -171 -107c-45 -103 -148 -259 -274 -259c-52 0 -107 29 -107 88c0 115 169 148 292 171c28 5 51 9 72 14c34 83 60 193 60 296c0 107 -31 275 -166 275c-34 0 -69 -14 -103 -39c-14 -59 -23 -133 -33 -206
c-32 -243 -73 -523 -277 -523c-76 0 -123 59 -123 131c0 9 2 13 10 13c4 0 7 -3 9 -6c0 -65 36 -119 104 -119c178 0 215 258 248 491c10 72 17 132 31 192c-58 -58 -92 -141 -113 -218c-1 -2 -4 -4 -8 -4c-7 0 -10 5 -10 11c22 87 69 184 138 244c15 56 34 105 60 134
c2 2 4 2 6 2c7 0 10 -5 10 -14c-21 -24 -33 -58 -45 -100c32 21 64 30 95 30c148 0 193 -170 193 -290c0 -102 -24 -206 -58 -291c68 20 119 44 142 93zM381 -197c110 0 202 139 247 233c-19 -4 -39 -9 -58 -12c-113 -21 -277 -55 -277 -152c0 -46 46 -68 88 -69z" />
    <glyph glyph-name="E" unicode="E" horiz-adv-x="444" 
d="M446 160l1 1c2 2 5 2 7 2c5 0 10 -4 10 -13c-61 -115 -165 -232 -307 -232c-114 0 -161 71 -161 160c0 95 51 208 136 274c-47 22 -68 66 -68 114c0 121 115 187 225 187c20 0 104 -11 104 -33c0 -7 -4 -10 -13 -10c-29 16 -61 24 -93 24c-96 0 -195 -62 -195 -166
c0 -42 19 -81 61 -101c39 26 82 41 128 41c26 -2 39 -8 39 -26c0 -34 -69 -48 -107 -48c-20 0 -40 2 -58 8c-80 -61 -131 -171 -131 -263c0 -78 37 -142 132 -142c133 0 231 112 290 223zM281 388c-38 0 -72 -10 -104 -30c11 -3 23 -5 36 -5c34 0 88 13 88 29
c0 4 -7 6 -20 6z" />
    <glyph glyph-name="F" unicode="F" horiz-adv-x="575" 
d="M695 630h1c7 0 10 -5 10 -10s-2 -9 -7 -10l-277 -55c-12 -59 -20 -119 -28 -179c-3 -26 -8 -49 -11 -76c86 16 167 31 253 48c7 0 11 -3 11 -10c0 -4 -2 -7 -7 -9l-259 -50c-22 -143 -70 -419 -260 -419c-76 0 -125 58 -125 131c0 9 0 13 9 13c5 0 10 -2 10 -8
c0 -67 38 -117 106 -117c173 0 211 262 232 395l-90 -17c-6 0 -10 3 -10 10c0 5 2 8 4 9l99 19c13 88 24 169 42 256l-35 -6c-14 -2 -27 -4 -41 -7c-7 0 -11 5 -11 10c0 10 21 14 71 23l21 5c10 50 29 115 62 153c1 1 5 3 7 3c5 0 10 -5 10 -10c0 -1 -1 -5 -2 -6
c-28 -34 -44 -92 -53 -136z" />
    <glyph glyph-name="G" unicode="G" horiz-adv-x="518" 
d="M437 300c3 5 8 8 14 8s12 -5 12 -14c-2 -15 -5 -32 -7 -50c-25 -184 -71 -524 -280 -524c-76 0 -124 58 -124 131c0 7 0 14 10 14c4 0 9 -4 9 -9c0 -66 37 -117 105 -117c185 0 231 328 253 496c0 3 0 3 1 11c-55 -97 -146 -246 -267 -246c-126 0 -167 145 -167 250
c0 142 90 394 270 394c75 0 125 -59 125 -133c0 -6 0 -12 -10 -12c-3 0 -10 4 -10 9c0 65 -38 116 -104 116c-171 0 -244 -247 -244 -378c0 -94 28 -226 140 -226c125 0 221 184 274 280z" />
    <glyph glyph-name="H" unicode="H" horiz-adv-x="586" 
d="M540 325c5 0 9 -5 9 -10c0 -4 -4 -9 -8 -9l-16 -2c-2 -17 -6 -34 -8 -51c-17 -120 -43 -304 -75 -377c-3 -3 -7 -5 -9 -5c-5 0 -9 4 -9 13c32 71 56 242 72 359l8 58c-68 -11 -156 -39 -240 -83c-18 -90 -77 -355 -199 -355c-48 0 -69 44 -69 86c0 120 145 225 243 278
c10 49 18 109 27 170c15 101 34 217 58 293c1 4 4 6 9 6c4 0 9 -4 9 -11c-19 -62 -35 -175 -47 -267c-9 -65 -16 -123 -26 -175c84 43 170 70 239 79c9 59 16 123 23 181c12 98 23 176 31 176c5 0 10 -2 10 -8c-5 -45 -22 -189 -45 -347c3 0 9 1 13 1zM65 -118
c102 0 150 234 168 320c-88 -49 -218 -141 -218 -252c0 -31 15 -68 50 -68z" />
    <glyph glyph-name="I" unicode="I" horiz-adv-x="264" 
d="M244 367h1l3 1c7 0 9 -5 9 -10c0 -8 -16 -16 -32 -25c-7 -4 -15 -7 -20 -12c-27 -165 -78 -343 -163 -343c-36 0 -46 36 -46 65c0 115 92 217 181 281c12 88 22 180 29 245c2 19 3 20 5 41l-4 -10c-15 -44 -35 -101 -73 -101c-5 0 -9 5 -9 10s3 8 8 10c27 0 42 43 55 82
c12 33 19 62 37 62c7 0 9 -7 9 -10c-1 -49 -8 -176 -26 -308c14 9 29 19 36 22zM42 -2c65 0 105 146 131 300c-76 -59 -158 -150 -158 -250c0 -20 3 -50 27 -50z" />
    <glyph glyph-name="J" unicode="J" horiz-adv-x="388" 
d="M426 385h4c5 0 9 -5 9 -10c0 -8 -32 -24 -66 -46c-26 -16 -55 -34 -71 -46c-26 -226 -75 -472 -196 -472c-59 0 -77 68 -77 115c0 143 139 278 245 359l12 110c11 101 21 190 33 240c-53 -20 -89 -72 -127 -125c-51 -70 -101 -141 -187 -141c-5 0 -9 5 -9 10s4 9 9 9
c71 0 126 70 172 133c43 60 89 123 155 138c6 0 10 -5 10 -12c-10 -40 -17 -122 -25 -203c-4 -47 -10 -90 -14 -137c48 34 90 59 123 78zM105 -169c98 0 140 215 166 428c-97 -78 -223 -204 -223 -333c0 -36 12 -95 57 -95z" />
    <glyph glyph-name="K" unicode="K" horiz-adv-x="558" 
d="M561 160h-1c2 4 6 4 8 4c5 0 10 -3 10 -11c-31 -55 -133 -225 -203 -225c-36 0 -48 34 -48 81c0 18 1 39 2 60s3 48 3 69c0 63 -10 120 -66 129c-13 -107 -49 -456 -193 -456c-61 0 -77 70 -77 119c0 155 123 257 244 355l12 109c13 128 28 270 47 270c7 0 10 -6 10 -11
c-10 -43 -17 -117 -25 -204c-4 -47 -7 -90 -13 -141c119 92 202 171 246 308c1 2 4 3 8 3c5 0 10 -4 10 -11c-39 -150 -147 -239 -257 -323c69 -15 81 -82 81 -153c0 -24 -1 -52 -3 -75c-1 -20 -3 -42 -3 -58c0 -32 5 -52 21 -52c59 0 159 163 187 213zM72 -169
c111 0 152 308 165 423c-115 -87 -222 -173 -222 -324c0 -37 10 -99 57 -99z" />
    <glyph glyph-name="L" unicode="L" horiz-adv-x="586" 
d="M587 159l1 1c1 1 5 3 7 3c5 0 10 -4 10 -13c-63 -119 -172 -150 -289 -150c-42 0 -82 6 -122 12l-22 4c-27 -31 -60 -54 -103 -54c-44 0 -73 25 -73 51c0 19 18 36 60 36c35 0 69 -5 106 -11c41 59 72 155 92 254c-37 70 -56 161 -56 237v17c1 32 13 129 59 129
c38 0 50 -62 50 -138c0 -100 -20 -225 -26 -254c3 -4 8 -9 10 -13c8 -10 17 -21 17 -24c0 -5 -5 -10 -11 -10s-15 13 -21 22c-21 -83 -53 -167 -91 -223c45 -8 89 -15 134 -15c107 0 209 27 268 139zM217 546v-13c0 -65 14 -145 43 -210c6 39 22 153 22 237
c0 54 -6 96 -24 96c-31 0 -40 -87 -41 -110zM69 -19c32 0 57 15 78 39l-11 2c-29 4 -57 8 -84 8c-26 0 -37 -8 -37 -17c0 -14 24 -32 54 -32z" />
    <glyph glyph-name="M" unicode="M" horiz-adv-x="639" 
d="M640 159l1 1c1 1 5 3 7 3c5 0 10 -4 10 -14c-26 -47 -106 -186 -169 -186c-38 0 -51 40 -51 95c0 67 18 167 36 259c16 83 33 169 34 224c0 47 -5 76 -30 76c-102 0 -185 -336 -201 -414c-1 -2 -4 -4 -9 -4s-10 2 -10 9c0 -7 3 22 5 42c5 44 13 110 13 164
c0 49 -6 87 -26 87c-38 0 -85 -97 -101 -130c-5 -65 -43 -506 -129 -506c-24 0 -24 35 -24 51c1 113 85 352 124 438v-2c6 58 10 117 14 169c6 84 12 150 21 150c3 0 8 -3 10 -8c0 -33 -2 -117 -12 -240c21 38 59 97 98 97c43 0 52 -62 52 -116c0 -25 1 -11 0 -27
c29 92 93 259 174 259c40 0 54 -40 54 -101c0 -71 -19 -169 -37 -264c-16 -82 -31 -162 -33 -216c0 -44 5 -72 28 -72c49 0 127 132 151 176zM21 -116c47 -1 83 307 93 407c-36 -96 -99 -286 -99 -376c0 -1 -1 -31 6 -31z" />
    <glyph glyph-name="N" unicode="N" horiz-adv-x="494" 
d="M495 159l1 1c2 2 5 2 7 2c7 0 12 -4 10 -14c-25 -47 -105 -185 -169 -185c-44 0 -48 51 -48 83c-1 62 21 155 43 242c20 81 40 162 40 212c0 21 -2 55 -28 55c-76 0 -180 -210 -208 -270v2c-6 -56 -41 -422 -121 -422c-22 0 -26 24 -26 41c0 61 50 217 117 363v-2
c9 82 16 171 22 244c7 89 14 160 21 160c5 0 9 -3 11 -8c0 -40 -5 -170 -19 -322c38 75 128 234 203 234c46 0 51 -49 51 -83c0 -65 -23 -164 -45 -254c-19 -81 -38 -162 -38 -209c0 -19 3 -46 25 -46c50 0 127 132 151 176zM22 -116c44 -1 76 264 85 333l2 12l8 -2
c-59 -134 -102 -269 -102 -321c0 -6 1 -22 7 -22z" />
    <glyph glyph-name="O" unicode="O" 
d="M190 664c120 0 171 -124 171 -265c0 -115 -54 -391 -219 -391c-108 0 -146 119 -146 209c0 67 19 147 50 213c-2 13 -2 28 -2 43c0 91 40 190 146 191zM141 27c144 0 192 261 192 372c0 130 -42 245 -143 245c-93 0 -128 -88 -128 -170c0 -9 -1 -6 0 -15
c24 41 56 77 94 101c5 0 10 -5 10 -10v-5c-41 -26 -75 -74 -98 -124c13 -74 55 -144 122 -183c1 -1 2 -4 2 -7c0 -5 -3 -9 -12 -9c-62 38 -106 99 -125 167c-21 -57 -31 -115 -31 -170c0 -76 20 -191 117 -192z" />
    <glyph glyph-name="P" unicode="P" horiz-adv-x="362" 
d="M470 431h1c7 0 10 -5 10 -10c0 -8 -10 -11 -23 -13c-5 -1 -12 -1 -19 -3c-31 -106 -137 -155 -201 -155c-20 0 -56 7 -56 36c0 62 180 118 233 132c5 18 7 42 7 67c0 62 -19 131 -81 131c-162 0 -277 -565 -319 -772l-7 -34c-2 -5 -7 -7 -10 -7c-4 0 -9 4 -9 11
c9 55 21 119 33 186c35 191 75 414 80 562c0 4 5 8 10 8c12 0 10 -14 10 -26v-6c0 -79 -10 -170 -24 -264c39 133 121 361 237 361c80 0 108 -80 108 -153c0 -21 -1 -39 -5 -56c12 3 19 4 25 5zM233 268c51 0 144 41 175 128c-49 -14 -206 -65 -206 -110
c0 -15 19 -18 31 -18z" />
    <glyph glyph-name="Q" unicode="Q" 
d="M337 -46h1c5 -2 8 -7 8 -10c0 -5 -4 -9 -9 -9c-100 4 -118 40 -118 91v8c0 3 1 5 1 8l6 -3c-25 -20 -53 -31 -86 -31c-106 0 -144 118 -144 206c0 68 18 146 48 212c-1 9 -1 20 -1 31c0 84 46 167 142 167c127 0 174 -107 174 -233c0 -125 -49 -268 -110 -333
c-2 -14 -3 -29 -3 -39c0 -38 15 -63 91 -65zM185 604c-81 0 -123 -71 -123 -145v-8c0 -3 1 -5 1 -7l-8 2c25 45 58 86 101 114c7 0 10 -3 10 -10v-5c-41 -27 -77 -77 -100 -128c13 -72 56 -113 98 -154c45 -45 87 -86 87 -162v-5c40 64 80 193 80 300
c0 112 -38 208 -146 208zM223 64l-1 -3c1 9 1 18 1 26c0 85 -39 124 -80 165c-33 33 -70 72 -90 134c-20 -56 -29 -114 -29 -168c0 -75 21 -191 116 -191c33 0 60 15 83 37z" />
    <glyph glyph-name="R" unicode="R" horiz-adv-x="543" 
d="M545 160c2 4 5 4 9 4c5 0 9 -4 9 -14c-36 -67 -155 -250 -239 -250c-50 0 -53 54 -57 121c-5 85 -16 194 -122 236c-5 2 -8 5 -8 9c0 5 5 9 10 9c12 0 24 -1 34 -3h-1c10 -1 37 -3 28 -3c155 0 232 131 232 233c0 57 -26 118 -90 118c-184 0 -282 -524 -324 -750
c-3 -20 -8 -40 -11 -60c-2 -5 -7 -7 -10 -7c-5 0 -9 4 -9 11c11 74 25 149 39 226c34 184 69 374 69 554c0 20 0 39 -1 58c0 5 5 9 10 9c13 0 13 -78 13 -109v-6c0 -73 -5 -148 -14 -221c38 121 116 314 238 314c80 0 117 -64 117 -136c0 -112 -82 -253 -256 -253
c-8 0 1 -1 -7 0c74 -57 86 -162 90 -237c3 -54 5 -94 31 -94c71 0 186 179 220 241z" />
    <glyph glyph-name="S" unicode="S" horiz-adv-x="508" 
d="M510 160l1 1c1 1 5 3 8 3c5 0 9 -4 9 -13c-37 -73 -106 -100 -181 -111c8 -31 13 -62 13 -96c0 -116 -83 -194 -195 -194c-88 0 -169 53 -169 147c0 133 133 145 251 153c23 2 45 2 67 5c-15 47 -41 97 -64 144c-41 82 -81 163 -81 255c0 85 48 173 144 173
c83 0 131 -71 131 -149c0 -9 -9 -108 -30 -108c-5 0 -10 4 -10 13c15 37 21 68 21 95c0 67 -41 130 -112 130c-82 0 -116 -79 -116 -150c0 -87 42 -174 81 -253c23 -46 47 -94 64 -146c72 11 134 34 168 101zM164 -231c105 0 169 73 169 177c0 30 -5 60 -13 90
c-23 -3 -48 -3 -73 -5c-111 -7 -230 -15 -232 -132c0 -84 72 -129 149 -130z" />
    <glyph glyph-name="T" unicode="T" horiz-adv-x="321" 
d="M548 697h3c8 0 11 -6 11 -11c0 -4 -1 -7 -2 -8c-78 -30 -185 -47 -290 -60c-23 -224 -48 -449 -87 -671c-2 -5 -7 -7 -10 -7c-5 0 -10 5 -10 9l4 27c14 97 31 220 31 327c0 160 -50 253 -193 290c-6 1 -9 5 -9 9c0 9 103 20 177 27c31 3 57 4 71 6v6c1 22 2 56 18 56
c7 0 14 -5 14 -11c0 -13 -1 -29 -3 -41c-1 -1 -2 -3 -2 -6c103 13 206 31 277 58zM217 282h-8c13 113 22 221 32 333c-67 -8 -114 -12 -182 -18c114 -45 159 -137 159 -282c0 -6 -1 -12 -1 -17v-16z" />
    <glyph glyph-name="U" unicode="U" horiz-adv-x="368" 
d="M338 644c1 7 9 10 14 10c7 0 13 -5 13 -13c-15 -114 -32 -228 -49 -342s-34 -228 -49 -342c-2 -6 -5 -8 -10 -8s-9 4 -9 11l52 402c-40 -144 -105 -286 -206 -286c-76 0 -98 86 -98 189c0 82 13 174 23 244c6 40 10 70 11 88c0 4 5 8 10 8s8 -2 10 -7
c0 -19 -3 -54 -8 -95c-8 -68 -18 -159 -18 -236c0 -94 15 -172 70 -172c143 0 207 339 236 503c2 15 6 31 8 46z" />
    <glyph glyph-name="V" unicode="V" horiz-adv-x="265" 
d="M392 652h3c5 0 9 -5 9 -9c0 -5 -1 -8 -3 -9c-63 -22 -120 -182 -173 -337c-54 -157 -107 -308 -163 -308c-53 0 -69 77 -69 177c0 81 10 177 18 259c6 60 12 113 12 146c0 6 -1 11 -1 16v9c0 5 4 9 9 9c13 0 13 -23 13 -46c0 -39 -5 -97 -10 -161
c-7 -79 -14 -166 -14 -239c0 -86 10 -151 43 -151c38 0 89 143 138 279c56 161 121 341 188 365z" />
    <glyph glyph-name="W" unicode="W" horiz-adv-x="544" 
d="M646 652h3c5 0 9 -5 9 -9c0 -5 -1 -8 -3 -9c-52 -18 -91 -147 -133 -285c-53 -173 -108 -360 -200 -360c-64 0 -82 81 -82 174c0 31 -1 30 2 60c-30 -78 -76 -147 -144 -147c-80 0 -102 90 -102 194c0 93 17 199 28 269l9 59c1 6 5 9 10 9s10 -5 10 -10
c0 -20 -5 -53 -10 -95c-9 -68 -20 -157 -20 -234c0 -94 17 -172 75 -172c107 0 154 214 170 302c2 5 5 7 9 7c5 0 10 -5 10 -10l-3 -27c-6 -49 -16 -133 -16 -208c0 -81 11 -152 53 -152c73 0 130 176 178 336c42 141 88 288 147 308z" />
    <glyph glyph-name="X" unicode="X" horiz-adv-x="474" 
d="M492 655h1c6 0 11 -3 11 -10c0 -4 -2 -7 -7 -9c-49 -11 -147 -225 -206 -354c-13 -29 -26 -58 -34 -74c52 -82 123 -141 222 -143c5 -2 7 -7 7 -10c0 -5 -2 -9 -8 -9c-107 0 -180 52 -235 135c-69 -131 -141 -240 -219 -240c-9 0 -28 1 -28 12c0 5 3 10 10 10
c3 0 7 -1 10 -1c3 -1 5 -1 8 -1c68 0 140 111 206 240c-65 109 -92 251 -95 359c0 5 6 9 11 9c3 0 7 -2 9 -7c5 -98 31 -229 89 -332c11 25 23 47 34 72c59 130 156 340 214 353z" />
    <glyph glyph-name="Y" unicode="Y" horiz-adv-x="467" 
d="M424 630v1c1 4 5 5 9 5c7 0 10 -6 10 -11c-12 -49 -20 -124 -28 -210c-26 -270 -62 -646 -290 -646c-77 0 -129 58 -129 134c0 7 0 15 10 15c5 0 9 -4 9 -8v-8c0 -65 42 -113 108 -113c200 0 237 352 266 614l6 50c-36 -137 -105 -354 -251 -354c-96 0 -117 100 -117 177
c0 87 33 286 59 286c5 0 9 -3 9 -12c-14 -44 -41 -164 -41 -266c0 -60 9 -166 90 -166c143 0 207 243 250 408c11 41 21 78 30 104z" />
    <glyph glyph-name="Z" unicode="Z" horiz-adv-x="571" 
d="M541 183h3c5 0 9 -5 9 -9c0 -6 -3 -9 -5 -10l-57 -14c-5 -192 -177 -391 -376 -391c-64 0 -119 20 -119 95c0 193 321 274 467 310c-1 68 -30 115 -91 117c-37 -35 -113 -96 -166 -96c-11 0 -22 4 -22 18c0 24 58 59 78 68c36 17 69 27 98 29c58 60 147 179 147 262
c0 45 -29 72 -73 72c-107 0 -196 -96 -266 -168c-2 -1 -4 -1 -7 -1c-5 0 -9 4 -9 8c0 2 1 5 3 8c72 75 167 172 279 172c54 0 100 -31 100 -91c0 -85 -83 -198 -143 -262c65 -7 97 -59 100 -129zM115 -222c186 2 339 190 348 366c-136 -33 -448 -111 -448 -289
c0 -63 47 -77 100 -77zM205 204c40 0 98 43 132 74c-20 -4 -40 -12 -66 -25c-12 -6 -68 -36 -68 -49h2z" />
    <glyph glyph-name="zero" unicode="0" horiz-adv-x="448" 
d="M203 602c79 -1 150 -84 150 -255c0 -224 -114 -351 -213 -351c-76 0 -144 76 -144 243c0 239 110 363 207 363zM326 333c0 171 -53 251 -122 251c-83 0 -180 -124 -180 -348c0 -153 54 -221 116 -221c83 0 181 119 186 318z" />
    <glyph glyph-name="one" unicode="1" horiz-adv-x="252" 
d="M154 600c3 3 8 4 13 4c8 0 14 -3 14 -12c-26 -196 -53 -397 -80 -593c-2 -3 -6 -5 -13 -5s-15 4 -15 9c9 67 19 131 28 196c18 121 34 227 48 351c-22 -27 -45 -51 -67 -77c-21 -24 -41 -49 -63 -75c-4 -4 -8 -5 -12 -5c-6 0 -11 4 -11 12c0 3 2 7 4 10
c51 60 105 125 154 185z" />
    <glyph glyph-name="two" unicode="2" horiz-adv-x="408" 
d="M313 15c7 0 10 -6 10 -12c0 -5 -3 -11 -10 -11h-122c-41 0 -82 -1 -124 -1h-13c-6 0 -14 -1 -21 -1c-19 0 -37 3 -37 13c0 4 2 9 7 11h-1c159 70 300 213 300 395c0 78 -32 177 -125 177c-82 0 -131 -74 -131 -151c0 -6 -5 -6 -10 -6s-10 0 -10 6c0 88 59 170 151 170
c105 0 153 -98 153 -192c0 -178 -129 -320 -280 -398h28c16 0 32 -1 48 -1h93c31 0 62 1 94 1z" />
    <glyph glyph-name="three" unicode="3" horiz-adv-x="387" 
d="M117 354l-3 8c14 2 29 2 41 2c108 0 152 -58 152 -129c0 -106 -95 -240 -218 -240c-70 0 -93 55 -93 116c0 7 -2 16 9 16c5 0 9 -3 11 -8v-13c0 -47 17 -92 73 -92c103 0 191 126 191 221c0 61 -38 110 -128 110c-23 0 -51 -3 -83 -11c-7 0 -11 5 -11 11c0 4 1 5 3 7
c125 46 170 112 170 162c0 42 -31 76 -71 76c-38 0 -85 -25 -121 -102c-2 -2 -4 -4 -8 -4c-5 0 -10 4 -10 13c40 82 94 114 142 114c52 0 96 -41 96 -95c0 -51 -39 -113 -142 -162z" />
    <glyph glyph-name="four" unicode="4" horiz-adv-x="358" 
d="M272 339c5 0 7 -4 7 -9c0 -13 -21 -11 -36 -11h-3l-16 -110c-10 -70 -20 -140 -29 -210c-2 -5 -6 -7 -13 -7s-15 4 -15 10l45 316c-22 0 -45 -1 -67 -1c-43 -1 -97 -2 -139 -2c-8 0 -10 5 -10 11c0 28 41 272 48 272c5 0 11 -2 11 -7l-10 -88c-6 -56 -12 -108 -19 -164
h93c33 0 62 -1 95 -1c12 85 23 169 33 254c1 6 7 10 14 10s14 -3 14 -11c-10 -85 -20 -167 -32 -253h12c6 0 11 1 17 1z" />
    <glyph glyph-name="five" unicode="5" horiz-adv-x="387" 
d="M83 351l-5 5c28 6 54 8 77 8c108 0 152 -59 152 -129c0 -105 -96 -240 -218 -240c-70 0 -93 55 -93 116c0 7 -2 15 10 15c5 0 10 -2 10 -8v-12c0 -47 17 -92 73 -92c101 0 191 124 191 218c0 62 -35 113 -127 113c-23 0 -52 -3 -84 -11c-1 0 -3 -1 -4 -1
c-7 0 -10 6 -10 11c0 35 37 256 41 256h62c57 0 128 -2 128 -10c0 -5 -2 -10 -7 -10h-84c-28 0 -52 1 -81 1c-9 -77 -20 -154 -31 -230z" />
    <glyph glyph-name="six" unicode="6" horiz-adv-x="384" 
d="M308 606c6 0 8 -5 8 -9c0 -5 -4 -10 -8 -10c-179 -1 -281 -210 -285 -374c0 -108 36 -196 124 -196c87 0 137 76 137 158c0 63 -33 119 -99 119c-54 0 -96 -39 -111 -90c-1 -2 -4 -4 -8 -4c-5 0 -9 5 -9 11c16 59 66 102 128 102c78 0 127 -65 127 -139
c0 -91 -65 -176 -161 -176c-107 0 -155 93 -155 210c0 176 112 398 312 398z" />
    <glyph glyph-name="seven" unicode="7" horiz-adv-x="375" 
d="M280 339c4 0 8 -5 8 -10c0 -12 -22 -10 -37 -10h-3c-4 -32 -10 -67 -14 -99l-31 -220c-2 -5 -6 -7 -13 -7s-15 4 -15 10l15 107c10 71 21 138 30 209h-69c-4 0 -8 5 -8 10c0 4 4 9 8 9h71l4 25c10 72 18 140 27 211c-41 -2 -80 -2 -121 -3l-126 -3c-7 0 -10 7 -10 14
s3 13 10 13c40 0 80 2 120 3c46 2 99 4 146 4c6 0 11 -6 11 -11c-10 -86 -20 -166 -32 -252c9 1 19 0 29 0z" />
    <glyph glyph-name="eight" unicode="8" horiz-adv-x="354" 
d="M189 584c-52 0 -87 -37 -87 -88c1 -45 31 -89 66 -136c42 -60 89 -124 89 -204c0 -70 -45 -160 -127 -160c-97 0 -134 111 -134 190c0 84 38 177 126 198c-23 36 -40 72 -40 112c0 61 45 108 106 108c58 0 96 -42 96 -98c0 -64 -43 -138 -76 -193c-1 -1 -3 -1 -5 -1
c-7 0 -11 3 -10 11c31 51 72 121 72 182c0 47 -29 79 -76 79zM229 155c0 72 -38 128 -75 182l-20 30c-83 -15 -119 -101 -119 -179c0 -69 30 -172 115 -172c68 0 99 79 99 139z" />
    <glyph glyph-name="nine" unicode="9" horiz-adv-x="408" 
d="M324 421c0 -178 -123 -423 -320 -423c-6 0 -8 5 -8 10c0 4 2 9 8 9c178 0 292 234 292 401c0 93 -35 167 -113 167c-81 0 -121 -81 -121 -154c0 -61 25 -119 92 -119c66 0 112 53 112 117c0 6 0 12 9 12c5 0 9 -3 11 -6c0 -77 -52 -142 -132 -142c-78 0 -120 66 -120 137
c0 84 55 174 149 174c97 0 140 -81 141 -183z" />
    <glyph glyph-name="grave" unicode="`" horiz-adv-x="132" 
d="M86 623v-2c0 -4 -8 -8 -12 -8c-9 0 -33 56 -38 72c0 8 9 14 16 14c5 0 8 -1 9 -3z" />
    <glyph glyph-name="hyphen" unicode="-" horiz-adv-x="276" 
d="M213 286h-1c2 2 4 2 6 2c5 0 9 -6 9 -11c0 -19 -50 -26 -53 -26c-18 0 -31 6 -45 12c-13 6 -27 11 -39 11c-3 0 -8 -3 -13 -6c-6 -3 -13 -6 -21 -6c-5 0 -10 6 -10 11c0 19 49 25 52 25c18 0 31 -5 45 -11h-1c13 -5 27 -11 40 -11c10 0 20 3 31 10z" />
    <glyph glyph-name="asciitilde" unicode="~" horiz-adv-x="292" 
d="M224 191h-1c2 2 4 2 6 2c5 0 9 -6 9 -11c0 -19 -50 -26 -53 -26c-18 0 -31 6 -45 12c-13 6 -27 11 -39 11c-3 0 -8 -3 -13 -6c-6 -3 -13 -6 -21 -6c-5 0 -10 6 -10 11c0 19 49 25 52 25c18 0 31 -5 45 -11h-1c13 -5 27 -11 40 -11c10 0 20 3 31 10z" />
    <glyph glyph-name="exclam" unicode="!" horiz-adv-x="181" 
d="M71 18c7 0 14 -6 14 -15c-1 -7 -6 -12 -15 -12c-7 0 -13 7 -13 14s7 13 14 13zM137 596v1c2 5 7 8 13 8c8 0 14 -5 14 -11c-13 -118 -31 -237 -49 -355c-11 -69 -21 -140 -31 -210c-2 -3 -5 -5 -9 -5c-7 0 -10 4 -10 10c26 187 51 374 72 562z" />
    <glyph glyph-name="at" unicode="@" horiz-adv-x="462" 
d="M411 87v1c2 2 4 2 6 2c5 0 10 -3 10 -12c-38 -56 -115 -86 -181 -86c-136 0 -200 112 -200 229c0 155 101 240 197 240c84 0 166 -64 166 -203c0 -91 -43 -178 -111 -178c-43 0 -55 40 -55 89v19c-15 -32 -33 -56 -53 -56c-24 0 -34 26 -34 59c0 56 31 134 72 134
c11 0 20 -2 32 -20c2 5 5 7 12 7s15 -4 15 -13c0 -13 -3 -31 -7 -51c-5 -28 -12 -61 -12 -88c0 -34 7 -61 30 -61c51 0 83 77 83 157c0 126 -65 186 -136 186c-82 0 -168 -74 -171 -215c0 -106 48 -216 166 -216c61 0 136 24 171 76zM190 151c24 0 49 77 63 126
c-9 20 -17 28 -24 28c-26 0 -47 -80 -47 -127c0 -16 3 -27 8 -27z" />
    <glyph glyph-name="numbersign" unicode="#" horiz-adv-x="438" 
d="M377 361c6 0 8 -5 8 -9c0 -9 -28 -11 -54 -11h-33l-10 -63h80c5 0 7 -5 7 -9c0 -5 -2 -10 -7 -10h-81c-1 -4 -2 -7 -2 -10c-4 -29 -9 -58 -12 -87c-2 -5 -6 -7 -12 -7c-8 0 -16 3 -16 10l14 94h-82c-5 -32 -9 -65 -13 -98c-2 -5 -6 -6 -12 -6c-8 0 -15 3 -15 10l13 94
h-19c-30 0 -69 0 -69 11c0 4 4 9 9 9h82v5c3 21 4 37 8 58h-36c-27 0 -54 2 -54 10c0 5 4 10 9 10c14 0 28 -1 43 -1h41c5 34 8 66 12 100c0 7 7 9 13 9c7 0 14 -3 14 -10c0 -24 -3 -48 -7 -72c-2 -11 -4 -17 -5 -27h40c15 0 26 -1 41 -1l13 101c0 7 7 9 13 9
c7 0 14 -3 14 -10c0 -26 -5 -52 -9 -78c-2 -9 -3 -13 -4 -22c27 0 52 0 78 1zM261 278l8 63c-27 0 -53 0 -81 1c-3 -23 -4 -41 -8 -64h81z" />
    <glyph glyph-name="dollar" unicode="$" horiz-adv-x="349" 
d="M236 599l-3 4c48 -6 81 -45 81 -96c0 -18 -14 -99 -30 -99c-5 0 -10 3 -10 12c10 26 20 56 20 83c0 42 -21 73 -60 81c-9 -77 -19 -154 -29 -231c38 -58 80 -120 80 -197c0 -79 -42 -155 -129 -159v0c-1 -12 -2 -29 -15 -29c-6 0 -11 3 -11 12l2 19
c-67 9 -115 66 -115 135c0 11 4 62 17 62c6 0 11 -4 11 -10c-6 -19 -9 -37 -9 -52c0 -61 38 -110 98 -117l46 327c-37 52 -70 100 -70 152c0 60 44 106 103 108v4c1 10 0 19 13 19c6 0 12 -5 12 -12c-1 -5 -2 -11 -2 -16zM260 156c-1 60 -30 113 -60 159
c-13 -100 -28 -199 -42 -299c76 4 102 71 102 140zM185 381l9 69c6 46 12 88 17 134c-46 -4 -77 -40 -77 -88c0 -34 24 -76 51 -115z" />
    <glyph glyph-name="percent" unicode="%" horiz-adv-x="342" 
d="M251 153c29 0 57 -21 57 -68c0 -56 -37 -85 -71 -85c-30 0 -57 22 -57 68c0 57 37 85 71 85zM280 84c0 35 -12 52 -29 52c-19 0 -43 -25 -43 -66c0 -35 12 -52 29 -52c19 0 42 25 43 66zM200 592v1c2 5 8 8 14 8c7 0 14 -3 14 -10c-16 -141 -37 -284 -57 -425l-23 -167
c-2 -5 -8 -7 -13 -7c-7 0 -15 4 -15 11l25 176c20 138 40 276 55 413zM167 527c-2 -55 -38 -83 -71 -83c-30 0 -57 21 -57 67c0 57 36 86 71 86c31 0 57 -23 57 -70zM95 462c19 0 44 23 44 65c0 36 -12 52 -29 52c-19 0 -44 -24 -44 -65c0 -36 13 -52 29 -52z" />
    <glyph glyph-name="asciicircum" unicode="^" horiz-adv-x="151" 
d="M119 624v-2c0 -4 -6 -8 -11 -8s-19 28 -26 44v-1l-3 6h8l-21 -46c-3 -3 -5 -3 -7 -3c-5 0 -12 4 -12 10l25 73c1 2 7 3 11 3c14 0 24 -33 31 -60c2 -5 3 -12 5 -16z" />
    <glyph glyph-name="asterisk" unicode="*" horiz-adv-x="163" 
d="M122 663c6 0 8 -4 8 -9s-4 -10 -9 -10h-19c4 -8 5 -13 9 -21c0 -4 -5 -11 -11 -11c-8 0 -10 10 -15 19l-9 -17c-1 -1 -2 -2 -5 -2c-6 0 -11 5 -11 10c0 6 5 14 10 22h-21c-6 0 -8 5 -8 10c0 4 2 9 7 9h21l-10 20c0 7 6 11 11 11c2 0 5 -1 6 -2l9 -18c4 9 10 20 16 20
c5 0 10 -4 10 -13l-9 -18h20z" />
    <glyph glyph-name="ampersand" unicode="&#x26;" horiz-adv-x="412" 
d="M330 90l-1 4c23 -38 38 -69 38 -88c0 -7 0 -10 -9 -10c-5 0 -9 9 -14 22c-5 16 -15 38 -25 56c-31 -44 -84 -77 -139 -77c-73 0 -133 51 -133 126c0 108 64 168 131 227c-12 37 -18 74 -18 111c0 101 46 146 88 146c48 0 68 -52 68 -92c0 -75 -55 -124 -105 -169l-8 -7
c28 -79 67 -147 108 -215h1c3 -6 4 -5 7 -11c7 19 11 43 11 67c0 26 -7 56 -28 73c-2 1 -3 3 -3 7c0 5 5 10 10 10c2 0 5 -1 7 -2c24 -21 33 -57 33 -87c0 -33 -5 -63 -19 -91zM179 461c0 -31 6 -63 15 -97c46 43 95 86 95 152c0 27 -9 73 -41 73s-69 -47 -69 -128zM180 16
c53 1 103 31 129 76l-15 25c-36 60 -84 146 -107 208c-57 -50 -112 -107 -112 -196c0 -68 39 -113 105 -113z" />
    <glyph glyph-name="plus" unicode="+" horiz-adv-x="422" 
d="M362 326c6 0 8 -7 8 -14c0 -13 -22 -16 -44 -16c-7 0 -14 1 -20 1h-13c-24 0 -43 0 -66 1c0 -4 -1 -9 -2 -12c-4 -42 -13 -128 -26 -128c-8 0 -20 4 -18 10c6 45 13 85 19 130h-66c-23 0 -47 1 -70 1c-5 0 -9 6 -9 12c0 7 3 15 10 15c23 0 46 -1 70 -1h68c1 6 1 16 2 21
c5 46 14 121 27 121c7 0 16 -2 16 -9l-18 -133c43 0 89 0 132 1z" />
    <glyph glyph-name="equal" unicode="=" horiz-adv-x="434" 
d="M360 262c6 0 8 -7 8 -14s-3 -13 -8 -14c-28 -1 -65 -1 -92 -1c-69 0 -138 1 -206 2c-5 1 -9 6 -9 12c0 7 3 15 10 15h97c33 0 67 -1 101 -1c33 0 66 0 99 1zM370 365c6 0 8 -7 8 -14c0 -12 -17 -15 -35 -15c-7 0 -14 1 -20 1h-13h-119c-40 0 -80 1 -119 1
c-5 0 -9 7 -9 13c0 7 3 15 10 15c67 -1 136 -2 205 -2c30 0 61 0 92 1z" />
    <glyph glyph-name="slash" unicode="/" horiz-adv-x="110" 
d="M77 602c0 5 4 5 9 5c8 0 18 -2 18 -7c-17 -152 -38 -305 -60 -456l-21 -144c-1 -5 -5 -5 -11 -5c-7 0 -16 2 -16 9l27 195c19 135 38 268 54 403z" />
    <glyph glyph-name="backslash" unicode="\" horiz-adv-x="123" 
d="M23 602c16 -135 35 -268 54 -403l27 -195c0 -7 -9 -9 -17 -9c-5 0 -9 0 -10 5l-27 195c-19 132 -38 273 -54 405c-1 5 10 7 17 7c5 0 10 0 10 -5z" />
    <glyph glyph-name="bar" unicode="|" horiz-adv-x="113" 
d="M40 602c0 3 7 6 14 6s14 -3 14 -6v-602c0 -3 -7 -6 -14 -6s-14 3 -14 6v602z" />
    <glyph glyph-name="parenleft" unicode="(" horiz-adv-x="191" 
d="M187 606h2c3 -2 6 -5 6 -10s-4 -10 -8 -10c-106 -1 -164 -203 -164 -367c0 -112 27 -207 83 -207c4 0 8 -5 8 -9c0 -5 -4 -10 -8 -10c-75 0 -110 107 -110 232c0 174 67 380 191 381z" />
    <glyph glyph-name="parenright" unicode=")" horiz-adv-x="205" 
d="M82 606h2c75 0 111 -108 111 -233c0 -173 -67 -380 -191 -380c-6 0 -8 5 -8 9c0 5 2 10 8 10c106 0 163 202 163 366c0 113 -27 208 -83 208c-5 0 -7 4 -7 9s2 9 5 11z" />
    <glyph glyph-name="braceleft" unicode="{" horiz-adv-x="224" 
d="M221 606h2c3 -2 5 -5 5 -10s-5 -10 -7 -10c-76 -1 -97 -91 -115 -173c-9 -41 -18 -79 -34 -106c10 -15 13 -37 13 -61c0 -20 -2 -43 -4 -66c-2 -24 -4 -48 -4 -70c0 -54 11 -97 65 -97c5 0 7 -5 7 -10c0 -4 -2 -9 -7 -9c-76 0 -92 56 -92 121c0 26 3 53 5 78
c2 23 4 45 4 63c0 10 -1 21 -3 30c-10 -9 -19 -11 -32 -11c-15 0 -28 9 -28 26c0 19 19 27 35 27c8 0 17 -2 23 -5c11 23 16 55 24 87c19 88 42 196 143 196zM24 295c8 0 15 3 21 10c-4 3 -8 4 -14 4c-5 0 -14 -4 -16 -9c1 -3 5 -5 9 -5z" />
    <glyph glyph-name="braceright" unicode="}" horiz-adv-x="233" 
d="M200 324c15 0 28 -10 28 -25c0 -19 -20 -28 -35 -28c-9 0 -17 2 -24 6c-9 -22 -16 -53 -22 -84c-19 -90 -41 -199 -143 -199c-6 0 -8 0 -8 9c0 5 3 10 6 10c77 1 97 91 115 173c10 40 19 79 35 107c-10 15 -13 37 -13 61c0 20 2 43 4 66c2 24 4 47 4 69
c0 54 -11 96 -65 97c-4 0 -8 5 -8 9c0 5 3 9 6 11c77 -1 94 -57 94 -122c0 -25 -3 -52 -5 -78c-2 -23 -4 -45 -4 -63c0 -11 1 -21 3 -29c9 8 18 10 32 10zM193 291c6 0 14 3 16 8c-1 3 -5 6 -9 6c-8 0 -16 -4 -21 -11c4 -2 8 -3 14 -3z" />
    <glyph glyph-name="bracketleft" unicode="[" horiz-adv-x="155" 
d="M152 612c2 0 7 -5 7 -10c0 -11 -26 -11 -45 -11h-10c-15 -135 -35 -270 -55 -405c-9 -59 -16 -115 -24 -174l48 -2c2 -2 4 -6 4 -9c0 -5 -2 -11 -7 -11c-2 0 -6 1 -12 1c-21 1 -62 -1 -62 13l27 195c19 135 38 268 54 403c2 7 20 10 39 10h31h5z" />
    <glyph glyph-name="bracketright" unicode="]" horiz-adv-x="159" 
d="M84 612h4c19 0 70 0 70 -13l-27 -195c-19 -135 -38 -270 -54 -404c-2 -9 -23 -10 -42 -10h-11c-19 0 -28 0 -28 11c0 12 32 10 50 10h5c16 143 37 287 57 430l21 150l-45 2c-4 1 -7 4 -7 9s2 10 7 10z" />
    <glyph glyph-name="quotedbl" unicode="&#x22;" horiz-adv-x="144" 
d="M63 697c7 0 13 -7 13 -14c0 -10 -13 -24 -20 -29c-2 0 -7 3 -7 6c0 2 1 5 4 8c2 2 2 0 3 3c-6 2 -7 6 -7 12c0 7 4 14 14 14zM96 697c8 0 14 -7 14 -14c0 -10 -12 -24 -21 -29c-2 0 -7 4 -7 9c0 0 3 1 2 0c2 3 4 4 5 7c-6 2 -7 7 -7 13c0 7 6 14 14 14z" />
    <glyph glyph-name="quotesingle" unicode="'" horiz-adv-x="94" 
d="M52 700c7 0 13 -7 13 -14c0 -10 -13 -24 -20 -29c-2 0 -7 3 -7 6c0 2 1 5 4 8c2 2 2 0 3 3c-6 2 -7 6 -7 12c0 7 4 14 14 14z" />
    <glyph glyph-name="period" unicode="." horiz-adv-x="111" 
d="M54 19c7 0 14 -6 14 -15c-1 -7 -6 -12 -15 -12c-7 0 -13 7 -13 14s7 13 14 13z" />
    <glyph glyph-name="comma" unicode="," horiz-adv-x="106" 
d="M52 15c7 0 13 -6 13 -13c0 -11 -13 -24 -20 -29c-2 0 -7 3 -7 7c0 0 5 4 7 9c-6 2 -7 7 -7 13c0 7 4 13 14 13z" />
    <glyph glyph-name="colon" unicode=":" horiz-adv-x="132" 
d="M64 255c2 0 5 -4 6 -6c-1 -2 -4 -6 -7 -6s-5 3 -5 6c0 4 3 6 6 6zM80 359h-1c3 -1 6 -3 6 -6c0 -4 -3 -6 -6 -6c-2 0 -5 3 -6 5c1 2 4 7 7 7z" />
    <glyph glyph-name="semicolon" unicode=";" horiz-adv-x="132" 
d="M62 262c7 0 13 -6 13 -14s-17 -28 -29 -25c0 0 3 6 5 8l4 5c-6 2 -7 7 -7 13c0 7 4 13 14 13zM78 367h1c7 -1 12 -7 12 -14c0 -8 -7 -14 -14 -14s-13 6 -13 13c0 8 4 15 14 15z" />
    <glyph glyph-name="question" unicode="?" horiz-adv-x="342" 
d="M146 395c5 0 7 -5 7 -9c0 -5 -2 -10 -7 -10c-50 0 -70 47 -70 91c0 71 51 135 126 135c65 0 116 -56 116 -118c0 -60 -40 -124 -84 -194c-48 -75 -100 -165 -109 -260c-1 -3 -4 -6 -8 -6c-5 0 -11 2 -11 7c7 99 61 188 108 268c41 67 77 127 77 182c0 54 -33 101 -89 101
c-64 0 -104 -51 -107 -112c0 -33 12 -74 51 -75zM115 15c6 0 13 -4 13 -13c0 -7 -4 -14 -14 -14c-7 0 -13 7 -13 14s7 13 14 13z" />
    <glyph glyph-name="less" unicode="&#x3c;" horiz-adv-x="236" 
d="M191 216c2 -2 2 -4 2 -7c0 -7 -9 -17 -19 -15l-102 85l-14 12h1c-4 3 -6 7 -6 10c0 4 2 7 6 10h-1l46 42c23 21 46 41 68 62c1 1 5 2 6 2c7 0 15 -10 15 -15c0 -2 0 -4 -2 -6c-25 -24 -52 -48 -78 -72l-24 -23z" />
    <glyph glyph-name="greater" unicode="&#x3e;" horiz-adv-x="247" 
d="M70 216l102 85l-24 23c-26 24 -53 48 -78 72c-2 2 -2 4 -2 6c0 5 8 15 15 15c1 0 5 -1 6 -2c21 -20 46 -42 68 -62l46 -42h-1c4 -3 6 -6 6 -10c0 -3 -3 -8 -5 -10l-14 -12l-104 -86c-9 0 -17 9 -17 16c0 3 0 5 2 7z" />
    <glyph glyph-name="germandbls" unicode="&#xdf;" horiz-adv-x="590" 
d="M500 349l-1 5c37 -23 51 -76 51 -119c0 -96 -60 -241 -176 -241c-47 0 -85 25 -85 77c0 43 27 82 64 102c6 0 12 -6 12 -11c0 -2 0 -4 -3 -7c-30 -16 -53 -48 -53 -82c0 -39 26 -60 65 -60c101 0 149 136 149 222c0 33 -8 80 -33 102c-23 -27 -76 -71 -115 -71
c-15 0 -29 7 -29 24c0 33 64 75 112 75c10 0 17 0 25 -3c26 37 42 81 42 125c0 52 -21 101 -76 101c-99 0 -122 -137 -146 -279c-26 -154 -52 -314 -181 -314c-86 0 -118 100 -118 171c0 46 13 92 38 120c6 0 13 -4 13 -14c-21 -24 -32 -64 -32 -106c0 -60 26 -152 99 -152
c105 0 128 143 152 287c25 153 52 307 173 307c64 0 106 -56 106 -117c0 -50 -20 -100 -53 -142zM375 285c28 1 72 37 95 61c-4 1 -7 0 -11 0c-38 0 -93 -34 -93 -56c0 -4 5 -5 9 -5z" />
    <glyph glyph-name="plusminus" unicode="&#xb1;" horiz-adv-x="448" 
d="M389 326c6 0 8 -7 8 -14c0 -13 -22 -16 -44 -16c-7 0 -14 1 -20 1h-13c-23 0 -42 0 -65 1l-4 -24c-5 -45 -13 -116 -25 -116c-8 0 -18 4 -18 10l19 130h-66c-23 0 -46 1 -69 1c-7 0 -10 6 -10 13s3 14 10 14h70c24 0 44 -1 68 -1l18 137c1 5 6 5 12 5c7 0 15 -2 15 -8
c-5 -46 -10 -88 -16 -134c44 0 86 0 130 1zM369 161c6 0 8 -7 8 -14s-3 -13 -8 -14c-28 -1 -65 -1 -92 -1c-69 0 -138 1 -206 2c-5 1 -9 6 -9 12c0 7 3 15 10 15h97c33 0 67 -1 101 -1c33 0 66 0 99 1z" />
    <glyph glyph-name="multiply" unicode="&#xd7;" horiz-adv-x="302" 
d="M255 189l1 -2l1 -1c0 -8 -10 -16 -17 -16c-3 0 -5 0 -4 -1c-26 36 -53 72 -80 108l-80 -108c1 1 -1 1 -3 1c-8 0 -19 8 -17 18l84 111l-84 116c0 4 12 16 22 15c26 -37 51 -72 78 -108c26 35 51 68 76 104c1 4 5 5 7 5c7 0 17 -7 17 -17c-27 -39 -54 -76 -83 -115
c28 -36 54 -74 82 -110z" />
    <glyph glyph-name="divide" unicode="&#xf7;" horiz-adv-x="431" 
d="M372 315c6 0 8 -7 8 -14s-3 -13 -8 -14c-28 -1 -65 -1 -92 -1c-69 0 -138 1 -206 2c-5 1 -9 6 -9 12c0 7 3 15 10 15h97c33 0 67 -1 101 -1c33 0 66 0 99 1zM213 234c7 0 13 -7 13 -14c0 -8 -8 -14 -15 -14c-8 1 -13 7 -13 15c1 8 6 13 15 13zM234 367c-8 0 -14 7 -14 14
c0 6 6 13 13 13c8 0 15 -6 15 -14c0 -7 -7 -13 -14 -13z" />
    <glyph glyph-name="underscore" unicode="_" 
d="M355 -17c-33 -1 -66 -1 -99 -1c-34 0 -67 1 -100 1h-99c-1 0 -1 3 -1 5c0 3 1 6 2 7c67 -1 136 -2 205 -2c27 0 64 0 92 1c3 0 0 -1 0 -6v-5z" />
    <glyph glyph-name="A.1" unicode="&#xe000;" horiz-adv-x="1494" 
d="M1495 158l1 1c1 1 3 3 7 3c5 0 10 -4 10 -14c-31 -59 -91 -135 -166 -135c-86 0 -104 154 -106 335c-29 -10 -65 -25 -103 -41c-35 -108 -135 -419 -275 -419c-49 0 -71 46 -71 89c0 156 193 278 321 339l31 94c33 104 65 198 95 252v17c-3 99 -7 263 -140 265
c-170 0 -424 -195 -642 -364c-182 -141 -354 -275 -453 -275c-6 0 -8 5 -8 10c0 4 2 9 8 9c93 0 256 126 435 267c224 175 476 372 657 372c114 0 143 -91 154 -188c9 -78 9 -181 9 -285c0 -40 0 -77 1 -116c8 2 14 5 22 7c7 0 11 -3 11 -10c0 -4 -1 -7 -3 -8l-30 -9
c2 -173 15 -321 86 -321c66 0 120 71 149 125zM861 -93c113 0 209 283 243 383c-118 -59 -292 -173 -292 -312c0 -30 13 -71 49 -71zM1144 323l-6 5c37 17 71 29 102 40v55v158v35c-19 -49 -41 -117 -61 -183c-11 -34 -25 -76 -35 -110z" />
    <glyph glyph-name="B.1" unicode="&#xe001;" horiz-adv-x="1559" 
d="M1559 157l1 1c1 1 3 3 7 3c5 0 10 -4 10 -13c-28 -57 -94 -86 -171 -107c-45 -103 -148 -258 -275 -258c-51 0 -106 27 -106 86c0 115 177 151 296 173c25 5 50 9 67 14c16 38 43 127 43 196c0 57 -17 103 -72 103c-47 0 -102 -32 -140 -57h1c-2 -2 -5 -2 -7 -2
c-5 0 -9 4 -9 9c0 4 1 5 2 6c79 56 180 164 180 267c0 32 -16 54 -48 54c-35 0 -73 -26 -104 -55c-10 -65 -23 -156 -36 -251v1l-6 -50c-14 -109 -38 -282 -65 -282c-5 0 -9 3 -9 13c25 83 54 289 71 426l13 109c-10 -12 -15 -20 -23 -30c-15 -20 -29 -37 -33 -37
c-5 0 -10 4 -10 9l3 6c17 26 43 61 67 87l4 26c8 58 18 124 18 185c0 100 -26 183 -128 183c-174 0 -421 -191 -644 -365c-185 -144 -353 -274 -451 -274c-5 0 -9 5 -9 10s2 9 9 9c93 0 256 126 435 267c224 176 477 373 658 373c122 0 153 -104 153 -219
c0 -54 -7 -116 -14 -166c28 23 64 44 101 44c45 0 74 -31 74 -76c0 -80 -59 -157 -115 -213c18 6 42 12 62 12c75 0 98 -57 98 -125c0 -65 -23 -143 -41 -186c67 20 120 48 143 94zM1131 -198c111 0 202 138 247 232l-54 -11c-110 -21 -280 -52 -280 -152
c0 -47 45 -69 87 -69z" />
    <glyph glyph-name="D.1" unicode="&#xe002;" horiz-adv-x="1617" 
d="M1619 159l1 1c1 1 3 3 7 3c5 0 10 -4 10 -13c-27 -58 -92 -86 -171 -107c-45 -103 -148 -259 -274 -259c-52 0 -107 29 -107 88c0 116 169 148 291 171c28 5 52 9 72 14c33 83 61 193 61 296c0 107 -31 275 -166 275c-38 0 -79 -19 -108 -43l-6 -60
c-23 -235 -71 -665 -299 -665c-76 0 -123 59 -123 131c0 7 0 13 9 13c5 0 8 -3 10 -6c0 -65 36 -119 104 -119c203 0 248 416 271 629l6 53c-57 -58 -91 -140 -112 -217c-1 -2 -4 -4 -8 -4c-5 0 -10 5 -10 11c23 83 67 179 133 240c1 22 4 44 6 68c4 40 7 81 7 121
c0 97 -22 184 -123 184c-174 0 -421 -191 -644 -365c-185 -144 -353 -274 -451 -274c-5 0 -9 5 -9 10s2 9 9 9c93 0 255 126 434 267c224 175 477 372 658 372c123 0 150 -107 150 -219c0 -46 -4 -93 -8 -133l-2 -20c31 20 68 36 105 36c148 0 193 -170 193 -290
c0 -101 -26 -207 -58 -291c68 20 119 44 142 93zM1191 -197c111 0 203 139 248 233c-19 -4 -39 -9 -58 -12c-113 -21 -277 -55 -277 -152c0 -46 46 -68 87 -69z" />
    <glyph glyph-name="F.1" unicode="&#xe003;" horiz-adv-x="1379" 
d="M1499 630h1c7 0 10 -5 10 -11c0 -4 -2 -8 -7 -9l-276 -55c-7 -51 -15 -102 -23 -153c-6 -36 -12 -66 -17 -102c86 16 167 31 253 48c7 0 12 -4 12 -9s-3 -8 -8 -10l-259 -50c-22 -143 -70 -419 -260 -419c-76 0 -125 58 -125 131c0 9 0 13 9 13c5 0 10 -2 10 -8
c0 -67 39 -117 107 -117c172 0 210 262 231 395l-90 -17c-6 0 -10 3 -10 10c0 5 2 8 4 9l99 19c5 34 12 65 17 99c10 57 18 105 26 158c-12 -3 -24 -5 -36 -7c-14 -2 -27 -4 -41 -7c-7 0 -11 5 -11 10c0 12 63 22 90 27h2c1 17 4 32 7 51c6 47 14 106 14 160
c0 100 -27 193 -128 193c-174 0 -421 -191 -644 -365c-185 -144 -353 -274 -451 -274c-5 0 -9 5 -9 10s2 9 9 9c93 0 256 126 435 267c224 176 477 373 658 373c120 0 149 -105 149 -216c0 -62 -8 -125 -14 -174l-5 -30c91 18 180 34 271 51z" />
    <glyph glyph-name="H.1" unicode="&#xe004;" horiz-adv-x="1501" 
d="M1455 325c5 0 9 -5 9 -9c0 -5 -4 -10 -9 -10l-17 -2c-3 -17 -4 -36 -7 -57c-16 -121 -42 -302 -74 -371c-3 -3 -7 -5 -9 -5c-7 0 -10 7 -10 13c32 70 57 242 73 360l8 57c-68 -11 -156 -39 -240 -83c-18 -90 -77 -355 -199 -355c-47 0 -69 42 -69 83
c0 126 142 229 242 281c2 11 5 27 8 39c27 144 67 373 67 493c0 105 -22 205 -128 205c-174 0 -421 -191 -644 -365c-185 -144 -353 -274 -451 -274c-5 0 -9 5 -9 10s2 9 9 9c93 0 255 126 434 267c224 175 477 372 658 372c121 0 150 -103 150 -218
c0 -135 -38 -390 -63 -522c84 42 171 70 238 79c9 59 16 122 23 179c12 99 24 178 31 178c5 0 10 -2 10 -7c0 -43 -21 -193 -44 -348c3 0 9 1 13 1zM979 -118c103 0 151 234 169 320c-88 -49 -218 -141 -218 -252c0 -31 14 -68 49 -68z" />
    <glyph glyph-name="I.1" unicode="&#xe005;" horiz-adv-x="1250" 
d="M1229 367h1l3 1c6 0 10 -5 10 -10c0 -8 -20 -19 -37 -29l-15 -9c-27 -165 -78 -342 -163 -342c-37 0 -46 36 -46 65c0 115 92 217 181 281c16 108 43 328 43 443c0 111 -24 220 -132 220c-172 0 -418 -210 -633 -396c-172 -147 -339 -291 -436 -295c-5 0 -9 3 -9 10
c0 3 2 7 8 9c87 4 261 151 422 288c215 184 462 396 642 403c136 0 158 -125 158 -259c0 -121 -17 -294 -32 -401c15 10 26 17 35 21zM1028 -2c64 0 105 146 130 300c-75 -59 -157 -151 -157 -250c0 -20 3 -50 27 -50z" />
    <glyph glyph-name="J.1" unicode="&#xe006;" horiz-adv-x="1270" 
d="M1307 385h4c5 0 10 -5 10 -10c0 -6 -32 -25 -66 -46c-28 -17 -56 -34 -72 -46c-26 -226 -75 -472 -195 -472c-60 0 -77 68 -77 115c0 143 138 279 245 359c4 33 7 65 10 98c9 87 17 170 35 254c-92 -7 -259 -137 -425 -267c-220 -172 -480 -371 -655 -371
c-57 0 -99 23 -124 73l1 -1c-2 2 -2 4 -2 6c0 5 5 10 10 10c3 0 7 -2 9 -7v1c21 -42 56 -63 103 -63c172 0 423 194 639 363c178 139 346 271 450 278h7c5 0 10 -3 10 -12c-11 -46 -18 -128 -27 -224l-11 -115c44 33 88 58 121 77zM987 -169c99 0 139 214 166 428
c-98 -78 -223 -204 -223 -333c0 -36 12 -95 57 -95z" />
    <glyph glyph-name="K.1" unicode="&#xe007;" horiz-adv-x="1493" 
d="M1496 160h-1c2 4 6 4 8 4c5 0 9 -4 9 -13c-29 -54 -131 -223 -202 -223c-37 0 -48 34 -48 81c0 18 1 39 2 60s3 48 3 68c0 64 -10 121 -67 130c-12 -107 -50 -456 -192 -456c-60 0 -77 66 -77 115c0 159 120 258 244 358c5 46 12 96 19 146c16 113 33 233 34 329
c0 105 -22 205 -128 205c-174 0 -421 -191 -644 -365c-185 -144 -353 -274 -451 -274c-5 0 -9 5 -9 10s2 9 9 9c93 0 255 126 434 267c224 175 477 372 658 372c121 0 150 -103 150 -218c0 -102 -15 -224 -28 -337l-13 -120c119 92 202 171 246 308c1 2 4 3 8 3
c7 0 10 -6 10 -11c-39 -150 -147 -239 -258 -323c70 -16 82 -83 82 -155c0 -24 -1 -51 -3 -74c-1 -20 -3 -41 -3 -57c0 -32 4 -52 21 -52c59 0 159 163 187 213zM1007 -169c110 0 151 308 165 423c-115 -87 -222 -173 -222 -324c0 -37 10 -99 57 -99z" />
    <glyph glyph-name="M.1" unicode="&#xe008;" horiz-adv-x="1683" 
d="M1684 159l1 1c1 1 5 3 7 3c5 0 10 -4 10 -14c-26 -47 -106 -186 -169 -186c-38 0 -51 40 -51 95c0 70 19 169 37 265c17 89 33 175 33 230c0 40 -9 64 -30 64c-102 0 -185 -336 -201 -414c-1 -2 -4 -4 -9 -4s-10 2 -10 9c0 -7 3 22 5 42c5 44 13 110 13 164
c0 49 -6 87 -26 87c-38 0 -85 -97 -101 -130c-5 -65 -43 -506 -129 -506c-24 0 -24 35 -24 51c1 110 84 347 124 438l6 58c10 101 22 219 22 322c0 124 -14 267 -134 267c-170 0 -415 -222 -626 -415c-168 -155 -328 -300 -427 -308c-5 0 -9 3 -9 10c0 3 2 7 7 9
c92 7 243 146 411 300c216 200 461 424 644 424c140 0 154 -161 154 -299c0 -101 -7 -205 -15 -299c21 38 59 97 98 97c43 0 53 -62 53 -116c0 -21 -2 -40 -3 -54c0 -4 -1 -7 -1 -10l-8 1c21 73 91 295 185 295c39 0 54 -38 54 -96c0 -70 -19 -169 -37 -264
c-16 -84 -31 -165 -33 -221c0 -44 5 -72 28 -72c50 0 127 132 151 176zM1065 -116c52 -1 87 344 95 424c1 5 1 8 1 10l8 -2c-34 -82 -110 -304 -110 -403c0 -6 1 -29 6 -29z" />
    <glyph glyph-name="N.1" unicode="&#xe009;" horiz-adv-x="1539" 
d="M1540 159l1 1c2 2 5 2 7 2c7 0 10 -4 10 -13c-25 -47 -106 -186 -169 -186c-40 0 -48 44 -48 76c-1 61 21 155 43 244c20 83 40 167 40 217c0 21 -2 55 -28 55c-76 0 -180 -210 -208 -270v2c-6 -56 -41 -422 -121 -422c-24 0 -26 24 -26 41c0 58 55 224 117 363
c2 18 5 35 7 56c14 123 32 285 32 414c0 123 -17 258 -136 258c-174 0 -414 -216 -628 -411c-172 -155 -328 -297 -428 -304c-5 0 -9 5 -9 10c0 3 2 7 8 9c92 7 244 143 412 296c218 196 463 419 647 419c140 0 153 -155 153 -291c0 -123 -11 -268 -22 -382
c38 74 126 232 202 232c45 0 50 -49 50 -83c0 -64 -24 -166 -44 -254c-19 -82 -38 -162 -38 -209c0 -19 3 -46 25 -46c50 0 127 132 151 176zM1067 -116c44 -1 76 264 85 333l2 12l8 -2c-59 -134 -102 -269 -102 -321c0 -6 0 -22 7 -22z" />
    <glyph glyph-name="P.1" unicode="&#xe00a;" horiz-adv-x="1434" 
d="M1544 431c7 0 10 -5 10 -10c0 -8 -10 -11 -23 -13c-5 -1 -13 -1 -20 -3c-34 -105 -138 -155 -201 -155c-22 0 -55 7 -55 36c0 63 179 118 232 132c5 18 8 43 8 67c0 62 -20 131 -82 131c-162 0 -277 -565 -319 -772l-7 -34c-2 -5 -7 -7 -10 -7c-4 0 -9 4 -9 11
c11 64 24 132 37 202c38 200 80 417 80 609c0 130 -13 289 -137 289c-175 0 -410 -224 -623 -427c-168 -161 -321 -307 -420 -316c-5 0 -9 3 -9 10c0 3 2 7 7 9c92 9 241 150 405 308c214 205 456 436 639 436c144 0 157 -173 157 -313c0 -115 -11 -238 -27 -345
c43 136 129 359 237 359c80 0 108 -80 108 -153c0 -21 -1 -39 -5 -56zM1306 268c50 0 143 41 174 128c-48 -14 -206 -65 -206 -110c0 -15 19 -18 32 -18z" />
    <glyph glyph-name="R.1" unicode="&#xe00b;" horiz-adv-x="1594" 
d="M1596 160c2 4 5 4 9 4c5 0 9 -4 9 -14c-36 -67 -154 -250 -238 -250c-50 0 -53 54 -57 121c-5 85 -16 194 -122 236c-5 2 -8 5 -8 9c0 5 3 9 10 9c12 0 23 -1 33 -3h-1c10 -1 38 -3 29 -3c154 0 231 131 231 233c0 57 -25 118 -89 118c-185 0 -283 -524 -325 -750
c-3 -20 -8 -40 -11 -60c-2 -5 -5 -7 -10 -7c-4 0 -9 4 -9 11c11 70 24 142 38 216c35 183 71 380 71 561c0 140 -19 343 -145 350c-168 -6 -392 -240 -590 -455c-162 -175 -310 -336 -414 -352c-6 0 -11 6 -11 11c0 3 2 7 7 9c89 15 254 187 396 341
c201 219 431 465 609 465c158 0 169 -234 169 -398c0 -79 -5 -162 -14 -236c38 121 116 313 238 313c79 0 118 -64 118 -136c0 -112 -85 -253 -256 -253c-8 0 1 -1 -7 0c74 -57 87 -162 90 -237c2 -54 3 -94 30 -94c72 0 186 179 220 241z" />
    <glyph glyph-name="T.1" unicode="&#xe00c;" horiz-adv-x="1280" 
d="M1507 697h3c8 0 11 -5 11 -11c0 -3 -3 -8 -7 -10c-73 -26 -182 -45 -285 -58c-23 -224 -49 -449 -88 -671c-2 -5 -6 -7 -9 -7c-5 0 -10 5 -10 9l7 56c13 92 28 203 28 300c0 159 -52 252 -194 288c-6 1 -9 5 -9 9c0 9 103 20 177 27c31 3 57 4 71 6c0 3 1 5 1 8
c4 38 10 92 10 147c0 107 -22 219 -124 219c-174 0 -420 -198 -640 -378c-181 -147 -345 -280 -444 -282c-5 0 -9 5 -9 10c0 3 2 7 8 9c94 2 253 132 430 276c222 181 471 383 653 385c126 0 154 -115 154 -234c0 -46 -4 -93 -8 -133l-2 -23c102 13 204 32 276 58zM1176 282
h-8c8 76 16 152 23 228c3 34 5 69 9 105c-68 -8 -113 -12 -181 -18c117 -46 157 -140 157 -293v-22z" />
    <glyph glyph-name="U.1" unicode="&#xe00d;" horiz-adv-x="1548" 
d="M1511 644c1 7 9 10 14 10c7 0 13 -5 13 -13c-16 -123 -35 -245 -53 -368c-16 -105 -31 -211 -45 -316c-2 -5 -7 -8 -10 -8c-5 0 -9 4 -9 11l52 402c-39 -144 -104 -286 -206 -286c-76 0 -98 86 -98 188c0 83 12 166 24 250s24 168 24 249c0 110 -23 213 -131 213
c-176 0 -420 -202 -639 -382c-179 -148 -343 -282 -442 -284c-5 0 -9 5 -9 10c0 3 2 7 8 9c93 2 253 133 429 278c221 181 469 386 651 388c120 0 152 -104 152 -221c0 -81 -10 -170 -20 -258c-10 -87 -19 -174 -19 -253c0 -92 16 -168 70 -168c145 0 211 356 239 517
c2 11 3 24 5 32z" />
    <glyph glyph-name="V.1" unicode="&#xe00e;" horiz-adv-x="1419" 
d="M1546 652h3c5 0 9 -5 9 -9c0 -5 -1 -8 -3 -9c-61 -20 -120 -188 -173 -338c-54 -155 -108 -307 -163 -307c-54 0 -70 77 -70 178c0 79 9 160 17 242c9 83 17 167 17 249c0 126 -17 275 -138 275h-13c-170 -24 -406 -238 -604 -427c-163 -157 -326 -309 -423 -318
c-5 0 -9 5 -9 10s2 7 7 9c93 9 243 151 408 310c206 197 439 419 619 435h8c3 0 5 1 8 1c145 0 157 -176 157 -317c0 -79 -7 -158 -14 -237s-13 -158 -13 -237c0 -87 11 -154 44 -154c40 -1 86 133 137 278c58 164 120 342 189 366z" />
    <glyph glyph-name="W.1" unicode="&#xe00f;" horiz-adv-x="1691" 
d="M1825 652h3c5 0 9 -5 9 -9c0 -5 -1 -8 -3 -9c-53 -18 -92 -146 -133 -284c-52 -173 -108 -361 -201 -361c-63 0 -81 81 -81 174c0 30 -1 30 2 60c-30 -78 -76 -147 -144 -147c-78 0 -101 87 -102 188c-1 86 13 171 27 256c13 81 26 161 26 239c0 105 -22 205 -128 205
c-174 0 -421 -191 -644 -365c-185 -144 -353 -274 -451 -274c-5 0 -9 5 -9 10s2 9 9 9c93 0 255 126 434 267c224 175 477 372 658 372c121 0 150 -103 150 -218c0 -83 -11 -167 -22 -250c-11 -84 -22 -169 -22 -252c0 -93 17 -167 74 -167c107 0 154 214 170 302
c2 5 5 7 9 7c5 0 10 -5 10 -10l-3 -27c-6 -49 -16 -133 -16 -208c0 -81 11 -152 53 -152c73 0 130 176 178 336c42 141 88 288 147 308z" />
    <glyph glyph-name="X.1" unicode="&#xe010;" horiz-adv-x="1476" 
d="M1494 655h1c6 0 11 -3 11 -10c0 -4 -2 -7 -7 -9c-49 -11 -147 -225 -206 -354c-13 -29 -26 -58 -34 -74c52 -82 123 -141 222 -143c5 -2 7 -7 7 -10c0 -5 -2 -9 -8 -9c-107 0 -180 52 -235 135c-68 -131 -142 -240 -219 -240c-9 0 -28 1 -28 12c0 5 3 10 10 10
c3 0 7 -1 10 -1c3 -1 5 -1 8 -1c68 0 140 111 206 240c-76 128 -86 243 -95 365c-4 56 -9 117 -20 178c-19 92 -58 178 -140 178c-8 0 -17 -1 -27 -3c-168 -32 -378 -277 -558 -489c-146 -173 -290 -340 -385 -359c-6 0 -11 3 -11 10c0 3 2 7 7 9c91 19 224 176 372 350
c185 218 393 464 571 498c11 2 21 3 32 3c95 0 137 -91 158 -193c12 -62 17 -121 21 -176c9 -108 19 -217 89 -342c11 25 23 47 34 72c59 130 156 340 214 353z" />
    <glyph glyph-name="Y.1" unicode="&#xe011;" horiz-adv-x="1631" 
d="M1589 630v1c1 4 5 5 9 5c5 0 9 -6 9 -11c-12 -48 -19 -122 -27 -207c-25 -270 -62 -649 -291 -649c-77 0 -129 58 -129 134c0 7 0 15 10 15c5 0 10 -4 10 -9v-8c0 -65 43 -112 107 -112c198 0 236 342 265 603c5 41 9 82 14 117l8 -2l-6 -21
c-36 -134 -105 -387 -260 -387c-96 0 -116 100 -117 177c-1 60 9 122 19 181c9 56 18 115 18 169c0 105 -22 205 -128 205c-174 0 -421 -191 -644 -365c-185 -144 -353 -274 -451 -274c-5 0 -9 5 -9 10s2 9 9 9c93 0 255 126 434 267c224 175 477 372 658 372
c121 0 150 -103 150 -218c0 -58 -7 -117 -14 -176c-7 -58 -14 -115 -14 -171c0 -61 7 -167 89 -167c141 0 206 240 250 405c11 40 21 81 31 107z" />
    <glyph glyph-name="Z.1" unicode="&#xe012;" horiz-adv-x="1221" 
d="M1191 183h3c5 0 9 -5 9 -9c0 -6 -3 -9 -5 -10l-57 -14c-5 -192 -176 -391 -376 -391c-62 0 -119 20 -119 95c0 192 320 273 468 310c-2 67 -31 115 -91 117c-38 -35 -114 -96 -167 -96c-11 0 -22 4 -22 18c0 24 59 59 78 68c36 17 70 27 99 29c58 60 147 180 147 262
c0 45 -30 72 -74 72c-166 0 -409 -190 -620 -357c-179 -143 -356 -281 -459 -281c-5 0 -9 3 -9 10c0 3 2 7 8 9c101 0 266 131 446 274c219 174 460 364 634 364c53 0 101 -31 101 -91c0 -85 -84 -198 -144 -262c64 -8 97 -60 100 -129zM766 -222c185 2 338 190 348 366
c-137 -33 -449 -111 -449 -289c0 -63 47 -77 101 -77zM855 204c39 0 98 43 132 74c-19 -4 -42 -13 -66 -25c-13 -7 -68 -36 -68 -49h2z" />
    <glyph glyph-name="a.1" unicode="&#xe013;" horiz-adv-x="1036" 
d="M1041 166l1 1c2 2 5 2 7 2c7 0 10 -4 10 -13c-27 -52 -87 -160 -145 -160c-44 0 -56 42 -56 90c0 16 -2 2 0 18c-14 -32 -31 -56 -52 -56c-24 0 -34 26 -34 58c0 24 7 55 15 78c-102 -71 -182 -95 -251 -95c-58 0 -114 18 -167 36c-55 18 -113 37 -174 37
c-53 0 -112 -11 -185 -42l1 1c-2 -2 -4 -2 -6 -2c-5 0 -9 5 -9 10c0 2 2 7 5 9c72 31 133 43 188 43c66 0 124 -19 181 -37c55 -18 110 -35 167 -35c75 0 161 29 279 120h-1c8 6 16 12 27 12c15 0 27 -6 39 -28l-8 -2c0 1 1 4 1 5c1 8 2 13 13 13c8 0 16 -6 16 -13
c0 -13 -4 -33 -8 -53c-5 -27 -11 -60 -11 -85c0 -36 7 -63 30 -63c45 0 102 105 127 151zM806 68c24 0 49 76 63 126c-9 20 -18 28 -24 28c-27 0 -47 -80 -47 -126c0 -17 2 -28 8 -28z" />
    <glyph glyph-name="a.2" unicode="&#xe014;" horiz-adv-x="1004" 
d="M994 132h4c5 0 9 -5 9 -10c0 -4 -1 -8 -5 -9c-74 -32 -138 -43 -193 -43c-64 0 -121 19 -177 37c-54 18 -107 35 -164 35c-99 0 -171 -51 -230 -93c-40 -29 -74 -53 -105 -53c-44 0 -55 47 -55 89c0 18 -2 6 0 18c-15 -33 -31 -55 -52 -55c-24 0 -34 27 -34 59
c0 57 31 134 72 134c11 0 21 -6 32 -21v1c2 4 7 8 11 8c8 0 16 -6 16 -13c0 -10 -3 -23 -6 -41c-6 -29 -13 -66 -13 -97c0 -35 7 -63 30 -63c25 0 54 21 89 47c59 43 136 100 244 100c58 0 114 -18 168 -35c55 -18 113 -37 174 -37c52 0 111 10 185 42zM26 68
c24 0 49 76 63 126c-9 20 -18 28 -24 28c-27 0 -47 -80 -47 -126c0 -17 2 -28 8 -28z" />
    <glyph glyph-name="b.1" unicode="&#xe015;" horiz-adv-x="1045" 
d="M1046 159l2 2c2 2 5 2 7 2c5 0 9 -6 9 -13c-20 -44 -74 -74 -117 -93c-11 -42 -34 -78 -70 -78c-17 0 -33 10 -33 30c0 31 39 46 67 56c4 2 8 3 11 4c4 18 5 38 5 54c0 26 -4 46 -12 46c-25 0 -57 -98 -77 -160c-9 -26 -18 -54 -23 -54c-14 0 -14 41 -14 77
c0 24 1 51 3 81c0 3 1 9 1 12l7 -2c-74 -96 -152 -126 -234 -126c-72 0 -147 23 -219 46c-73 23 -148 46 -219 46c-43 0 -87 -9 -130 -32l1 1c-2 -2 -4 -2 -6 -2c-5 0 -9 5 -9 10c0 4 2 7 5 9c45 23 94 34 140 34c74 0 147 -23 220 -46s145 -46 216 -46c81 0 159 33 229 130
c15 205 67 494 174 494c32 0 41 -27 41 -54c0 -109 -161 -389 -187 -434c-5 -56 -7 -79 -8 -116c18 56 53 151 89 151c27 0 40 -34 40 -74c0 -11 -1 -23 -2 -33c36 17 76 41 93 78zM981 622c-96 0 -134 -330 -144 -427c50 87 165 301 165 392c0 15 -3 35 -21 35zM876 -2
c20 1 34 25 42 54l4 -5s2 -1 1 -1c-19 -7 -60 -20 -60 -37c0 -7 6 -11 13 -11z" />
    <glyph glyph-name="b.2" unicode="&#xe016;" horiz-adv-x="235" 
d="M236 159l2 2c2 2 5 2 7 2c5 0 9 -6 9 -13c-23 -45 -73 -73 -118 -93c-11 -42 -34 -78 -69 -78c-17 0 -33 10 -33 30c0 30 38 44 66 54h-1l12 5c4 19 6 37 6 53c0 27 -5 48 -12 48c-26 0 -57 -96 -77 -158c-11 -33 -18 -56 -24 -56c-13 0 -13 41 -13 77c0 68 6 165 20 262
c-12 -2 -25 -2 -41 -2c-62 1 -126 21 -191 41c-68 21 -137 43 -202 43c-38 0 -77 -8 -114 -28l1 1c-2 -2 -5 -2 -7 -2c-5 0 -9 4 -9 9c0 3 4 8 13 14c35 18 74 25 117 25c68 0 137 -22 205 -43c64 -20 128 -40 188 -41c15 0 29 0 43 3c25 167 76 327 156 327
c30 0 42 -26 42 -64c0 -88 -78 -245 -171 -275c-13 -87 -21 -177 -25 -265c18 56 53 151 89 151c27 0 40 -35 40 -75c0 -12 -1 -21 -3 -32c38 17 76 40 94 78zM170 622c-67 0 -106 -166 -126 -298c81 36 148 178 148 254c0 27 -5 44 -22 44zM66 -2c18 1 31 21 39 47
c-1 -1 1 0 0 0h1c-18 -7 -53 -19 -53 -36c0 -7 6 -11 13 -11z" />
    <glyph glyph-name="b.3" unicode="&#xe017;" horiz-adv-x="943" 
d="M933 111l-1 -1c2 2 4 2 6 2c5 0 9 -5 9 -10c0 -4 -2 -8 -5 -9c-45 -24 -94 -34 -140 -34c-73 -1 -145 23 -218 46c-72 23 -145 46 -216 46c-76 0 -113 -24 -155 -51c-19 -12 -55 -32 -76 -43c-11 -42 -34 -78 -69 -78c-18 0 -34 10 -34 30c0 31 39 46 67 56c4 2 8 3 11 4
c4 18 5 38 5 54c0 26 -4 46 -12 46c-25 0 -57 -98 -77 -160c-9 -26 -18 -54 -23 -54c-13 0 -13 43 -13 79c0 188 48 607 178 607c32 0 41 -28 41 -54c0 -109 -161 -389 -187 -434c-5 -55 -7 -81 -8 -117c18 56 53 152 89 152c27 0 40 -34 40 -74c0 -11 -1 -23 -2 -33
c29 13 48 26 65 38c42 28 77 51 153 51c73 0 147 -23 221 -46s147 -46 219 -46c44 0 88 9 132 33zM171 622c-96 0 -134 -330 -144 -427c50 87 165 301 165 392c0 15 -3 35 -21 35zM66 -2c20 1 34 25 42 54l4 -5s2 -1 1 -1c-19 -7 -60 -20 -60 -37c0 -7 6 -11 13 -11z" />
    <glyph glyph-name="c.1" unicode="&#xe018;" horiz-adv-x="1013" 
d="M1015 161l1 1c2 2 4 2 7 2c5 0 10 -4 10 -13c-32 -59 -102 -147 -176 -147c-58 0 -78 57 -78 104c0 16 2 40 9 61c-104 -74 -183 -96 -252 -96c-58 0 -114 18 -167 36c-55 18 -113 37 -174 37c-53 0 -112 -11 -185 -42l1 1c-2 -2 -4 -2 -6 -2c-5 0 -9 5 -9 10
c0 2 2 7 5 9c72 31 133 43 188 43c66 0 124 -19 181 -37c55 -18 110 -35 167 -35c75 0 161 29 279 120h-1c10 9 21 13 34 13c20 0 30 -15 31 -33c0 -4 -6 -43 -22 -43c-6 0 -11 3 -9 12c8 12 11 23 11 31c0 7 -4 14 -11 14c-32 0 -43 -74 -43 -98c0 -34 10 -86 52 -86
c63 0 129 86 157 138z" />
    <glyph glyph-name="c.2" unicode="&#xe019;" horiz-adv-x="972" 
d="M962 150h5c5 0 9 -4 9 -9c0 -4 -1 -8 -5 -9c-75 -33 -138 -44 -194 -44c-65 0 -122 18 -178 37c-54 18 -107 36 -164 36c-105 0 -181 -53 -244 -98c-46 -32 -85 -59 -122 -59c-58 0 -78 57 -78 104c0 36 18 118 70 118c20 0 31 -15 31 -33c0 -4 -6 -43 -22 -43
c-6 0 -11 3 -9 12c8 12 11 23 11 31c0 7 -3 14 -11 14c-32 0 -42 -74 -42 -98c0 -34 8 -86 52 -86c31 0 65 25 107 54c66 46 149 103 258 103c58 0 114 -18 167 -35c55 -18 113 -37 174 -37c52 0 111 10 185 42z" />
    <glyph glyph-name="d.1" unicode="&#xe01a;" horiz-adv-x="1057" 
d="M1062 165l1 1c1 1 5 3 8 3c4 0 9 -4 9 -14c-25 -46 -113 -207 -172 -207c-34 0 -48 49 -48 119c0 22 -2 15 1 41c-15 -34 -33 -60 -54 -60c-25 0 -35 27 -35 60c0 23 5 52 14 75c-102 -72 -181 -94 -250 -94c-58 0 -114 18 -167 35c-55 18 -113 37 -174 37
c-54 0 -112 -10 -185 -42l1 1c-2 -2 -4 -2 -6 -2c-5 0 -9 5 -9 10c0 2 2 7 5 9c75 33 138 44 194 44c65 0 122 -18 178 -37c54 -18 107 -36 164 -36c73 0 163 29 280 121h-1c8 6 16 12 27 12c12 0 23 -5 33 -19c17 90 85 384 173 384c32 0 42 -29 42 -54
c0 -106 -137 -307 -199 -400l1 1c-5 -39 -7 -75 -7 -103c0 -50 6 -83 22 -83c45 0 132 157 154 198zM1050 587c-74 -1 -136 -301 -151 -392c66 100 173 267 173 357c0 14 -5 35 -22 35zM807 68c24 0 49 76 63 126c-9 20 -18 28 -25 28c-26 0 -46 -80 -46 -126
c0 -17 2 -28 8 -28z" />
    <glyph glyph-name="d.2" unicode="&#xe01b;" horiz-adv-x="277" 
d="M136 298l3 3c-17 -77 -32 -160 -35 -238c0 -57 5 -96 23 -96c45 0 132 157 154 198c2 2 6 4 8 4c7 0 10 -5 10 -14c-25 -46 -114 -207 -173 -207c-34 0 -47 50 -47 122c0 21 -1 16 1 40c-15 -34 -34 -62 -54 -62c-25 0 -35 27 -35 59c0 57 31 134 73 134
c9 0 20 -5 30 -19c3 17 9 43 15 71c-7 -1 -13 -2 -21 -2c-64 0 -131 21 -198 42c-69 21 -139 43 -206 43c-38 0 -77 -8 -114 -28l1 1c-2 -2 -5 -2 -7 -2c-5 0 -9 4 -9 9c0 3 4 8 13 14c35 18 74 25 117 25c68 0 137 -22 205 -43c64 -20 128 -40 188 -41c13 0 24 1 37 3
c29 120 85 292 154 292c29 0 41 -25 41 -59c0 -82 -74 -224 -174 -249zM269 587c-51 0 -96 -147 -125 -267c87 29 147 160 147 229c0 23 -7 38 -22 38zM26 68c23 0 48 76 62 126c-9 20 -17 28 -24 28c-26 0 -47 -80 -47 -126c0 -17 3 -28 9 -28z" />
    <glyph glyph-name="d.3" unicode="&#xe01c;" horiz-adv-x="1022" 
d="M1012 111h4c5 0 10 -4 10 -9c0 -4 -2 -8 -5 -9c-45 -24 -94 -34 -140 -34c-74 0 -147 23 -220 46s-145 45 -216 45c-121 0 -187 -78 -235 -136c-29 -36 -53 -66 -83 -66c-33 0 -47 48 -47 116c0 23 -2 18 1 45c-15 -35 -34 -61 -55 -61c-24 0 -34 27 -34 59
c0 57 31 134 72 134c10 0 21 -6 31 -19c17 90 85 384 174 384c31 0 41 -29 41 -54c0 -93 -114 -271 -181 -374l-17 -26l1 1c-5 -39 -8 -76 -8 -105c0 -48 7 -81 23 -81c22 0 42 25 67 58c48 61 115 145 247 145c73 0 146 -23 220 -46c73 -23 147 -45 218 -45
c45 0 88 8 132 32zM270 587c-75 -1 -137 -301 -152 -392c66 100 173 267 173 357c0 14 -4 35 -21 35zM26 68c24 0 49 76 63 126c-9 20 -18 28 -24 28c-27 0 -47 -80 -47 -126c0 -17 2 -28 8 -28z" />
    <glyph glyph-name="e.1" unicode="&#xe01d;" horiz-adv-x="1032" 
d="M1034 161l1 1c1 1 5 3 8 3c5 0 9 -6 9 -13c-29 -56 -97 -119 -165 -119c-53 0 -79 34 -79 84c0 8 0 13 1 21c-24 -5 -46 -6 -70 -6c-92 2 -175 46 -257 89c-83 44 -165 87 -253 87c-69 0 -141 -29 -217 -112c-2 -2 -5 -2 -7 -2c-5 0 -9 4 -9 9c0 2 1 5 3 8
c77 82 157 117 230 117c92 0 175 -43 259 -87s169 -89 260 -89c20 0 44 3 66 8c11 44 40 82 77 82c17 0 28 -13 28 -29c0 -41 -51 -58 -81 -67c-2 -8 -2 -16 -3 -24c0 -36 11 -70 52 -70c58 0 121 59 147 109zM891 223c-19 0 -37 -24 -47 -54c25 7 56 21 56 44
c0 6 -3 10 -9 10z" />
    <glyph glyph-name="e.2" unicode="&#xe01e;" horiz-adv-x="984" 
d="M974 180h4c5 0 9 -5 9 -10c0 -4 -1 -8 -5 -9c-75 -32 -138 -43 -194 -43c-64 0 -120 19 -176 37c-54 18 -107 35 -164 35c-104 0 -177 -50 -241 -94c-49 -34 -91 -63 -135 -63c-54 0 -79 36 -79 87c0 58 38 122 83 122c17 0 28 -13 28 -29c0 -40 -49 -58 -81 -67
c-2 -10 -2 -22 -2 -31c0 -33 13 -63 51 -63c39 0 78 27 123 58c65 45 144 100 252 100c58 0 114 -18 167 -35c55 -18 113 -37 174 -37c53 0 112 10 186 42zM76 223c-19 0 -37 -23 -47 -54c25 7 56 21 56 44c0 6 -3 10 -9 10z" />
    <glyph glyph-name="f.1" unicode="&#xe01f;" horiz-adv-x="1003" 
d="M1005 161l1 1c1 1 5 3 7 3c5 0 10 -4 10 -13c-31 -60 -80 -129 -131 -175c16 -28 22 -62 22 -93c0 -28 -13 -155 -69 -155c-52 0 -56 115 -56 173v24h-1c-26 0 -50 15 -50 45c0 35 25 53 56 57c3 33 7 53 10 86c-71 -87 -147 -117 -226 -117c-72 0 -147 23 -219 46
c-73 23 -148 46 -219 46c-43 0 -87 -9 -130 -32l1 1c-2 -2 -4 -2 -6 -2c-5 0 -9 5 -9 10c0 4 2 7 5 9c45 23 94 34 140 34c74 0 147 -23 220 -46s145 -46 216 -46c82 0 161 31 232 134l-1 -1c35 245 114 506 201 506c30 0 38 -30 38 -54c0 -54 -34 -128 -56 -175
c-46 -97 -116 -211 -154 -269l1 1c-7 -45 -13 -90 -16 -132c25 -4 45 -16 59 -34c48 44 93 110 124 168zM1009 637c-68 0 -131 -212 -166 -435c36 58 92 154 130 234c21 43 55 118 55 165c0 13 -2 36 -19 36zM891 -126v9c0 27 -4 55 -16 80c-20 -16 -38 -27 -59 -33v-8
c0 -9 -1 -22 -1 -37c0 -55 4 -137 30 -137c34 0 46 98 46 126zM794 -54l-4 -4c0 14 1 29 2 45c0 5 1 15 1 21c-17 -3 -36 -14 -36 -35c0 -19 14 -27 31 -27h6zM817 8l4 4c-2 -23 -4 -41 -5 -62c16 6 35 18 50 30c-11 14 -28 25 -49 28z" />
    <glyph glyph-name="f.2" unicode="&#xe020;" horiz-adv-x="192" 
d="M194 161l1 1c1 1 3 3 7 3c5 0 10 -6 10 -13c-32 -60 -81 -129 -132 -175c17 -29 23 -66 23 -99c0 -37 -18 -149 -70 -149c-50 0 -56 108 -56 168c0 8 1 16 1 22v7h-1c-28 0 -51 15 -51 46c0 34 26 52 57 56c7 86 20 178 39 266c-12 -2 -25 -2 -40 -2
c-62 1 -126 21 -191 41c-68 21 -137 43 -202 43c-38 0 -77 -8 -114 -28l1 1c-2 -2 -5 -2 -7 -2c-5 0 -9 4 -9 9c0 3 4 8 13 14c35 18 74 25 117 25c68 0 137 -22 205 -43c64 -20 128 -40 188 -41c16 0 29 1 44 4c40 185 102 341 170 341c28 0 39 -23 39 -57
c0 -90 -86 -266 -185 -298c-19 -89 -33 -184 -41 -274c25 -4 45 -17 59 -34c48 44 93 110 125 168zM197 637c-55 0 -106 -143 -142 -313c89 34 159 194 162 273c0 25 -5 40 -20 40zM-22 -54v2c1 20 1 38 3 60c-18 -3 -36 -14 -36 -35c0 -19 14 -27 31 -27h2zM5 8l4 4
c-2 -21 -3 -43 -4 -62v-5l-5 4c18 5 36 15 54 31c-11 14 -27 25 -49 28zM80 -126c0 29 -3 61 -17 89c-20 -16 -38 -27 -59 -33v-8c0 -9 -1 -22 -1 -37c0 -55 4 -137 30 -137c35 0 46 98 47 126z" />
    <glyph glyph-name="f.3" unicode="&#xe021;" horiz-adv-x="929" 
d="M919 111h4c7 0 10 -5 10 -10c0 -2 -1 -6 -4 -8c-45 -24 -94 -34 -141 -34c-74 0 -146 23 -219 46c-72 23 -145 46 -216 46c-95 0 -156 -41 -215 -111v1l-11 -14c-14 -16 -29 -34 -47 -50c17 -29 23 -66 23 -99c0 -37 -18 -149 -70 -149c-50 0 -56 108 -56 168
c0 8 1 16 1 22v7h-1c-28 0 -51 15 -51 46c0 34 26 52 57 56c21 271 112 628 214 628c30 0 39 -30 39 -54c0 -53 -34 -129 -56 -175c-47 -97 -117 -211 -155 -269l1 1c-7 -47 -12 -88 -16 -132c25 -4 45 -16 59 -34c18 16 29 31 43 47v-1l11 13c62 74 126 118 225 118
c72 0 148 -22 220 -45c73 -23 148 -46 219 -46c45 0 88 8 132 32zM197 637c-66 0 -128 -217 -164 -434c36 58 87 143 129 233c21 43 54 118 54 165c0 13 -2 36 -19 36zM-22 -54v2c1 20 1 38 3 60c-18 -3 -36 -14 -36 -35c0 -19 14 -27 31 -27h2zM5 8l4 4
c-2 -21 -3 -43 -4 -62v-5l-5 4c18 5 36 15 54 31c-11 14 -27 25 -49 28zM80 -126c0 29 -3 61 -17 89c-20 -16 -38 -27 -59 -33v-8c0 -9 -1 -22 -1 -37c0 -55 4 -137 30 -137c35 0 46 98 47 126z" />
    <glyph glyph-name="g.1" unicode="&#xe022;" horiz-adv-x="1034" 
d="M1035 160l1 1c1 1 3 3 7 3c5 0 10 -6 10 -13c-32 -62 -93 -107 -162 -148c-19 -218 -72 -489 -246 -489c-78 0 -108 75 -108 141c0 171 144 252 275 324l52 29c5 61 7 88 9 133c-13 -38 -38 -93 -68 -93c-24 0 -34 25 -34 58c0 24 5 53 14 77c-102 -70 -180 -94 -249 -94
c-58 0 -114 18 -167 35c-55 18 -113 37 -174 37c-54 0 -112 -10 -187 -42c-8 0 -12 5 -12 10c0 4 2 7 5 9c75 32 138 43 194 43c64 0 120 -19 176 -37c54 -18 107 -35 163 -35c76 0 162 28 281 119h-1c10 9 20 13 30 13c11 0 22 -8 32 -21c0 1 1 2 1 3c2 5 6 7 11 7
c6 0 14 -5 16 -9v-11c-2 -46 -4 -108 -11 -185c61 37 113 79 142 135zM644 -466c168 0 205 322 217 452c-13 -7 -25 -16 -38 -23v1c-125 -70 -264 -147 -267 -307c0 -57 24 -122 88 -123zM806 68c27 0 55 99 62 125c-9 21 -17 29 -24 29c-25 0 -47 -80 -47 -126
c0 -17 3 -28 9 -28z" />
    <glyph glyph-name="g.2" unicode="&#xe023;" horiz-adv-x="173" 
d="M601 -127l4 1c6 0 11 -5 11 -10c0 -4 -2 -7 -5 -8c-46 -24 -96 -34 -144 -34c-75 1 -149 24 -221 47c-47 14 -97 29 -144 38c-26 -193 -87 -393 -236 -393c-77 0 -108 73 -108 138c0 160 131 279 285 279c11 0 19 -1 34 -2c10 80 14 162 18 242h8l-2 -6
c-11 -33 -38 -117 -75 -117c-25 0 -35 25 -35 58c0 56 32 135 74 135c11 0 20 -6 31 -21c0 1 1 2 1 3c2 5 6 7 12 7s14 -5 16 -9l-4 -68c-4 -77 -7 -149 -17 -226c50 -8 98 -24 147 -40c71 -23 141 -45 213 -45c48 0 93 6 137 31zM-135 -466c141 0 189 226 209 377
c-10 1 -21 1 -31 1c-140 0 -266 -108 -266 -255c0 -57 22 -122 88 -123zM27 68c27 0 55 99 62 125c-10 21 -17 29 -24 29c-25 0 -47 -80 -47 -126c0 -17 3 -28 9 -28z" />
    <glyph glyph-name="g.3" unicode="&#xe024;" horiz-adv-x="993" 
d="M983 155h4c5 0 10 -5 10 -10c0 -4 -1 -8 -5 -9c-75 -32 -138 -43 -194 -43c-64 0 -121 19 -177 37c-54 18 -107 35 -164 35c-104 0 -189 -55 -263 -107c-27 -19 -52 -37 -82 -55c-19 -218 -73 -489 -246 -489c-77 0 -108 73 -108 138c0 175 144 253 278 328l49 29
c5 61 8 118 10 162h8l-2 -6c-11 -33 -38 -117 -75 -117c-25 0 -35 25 -35 58c0 56 32 135 74 135c11 0 20 -6 31 -21c0 1 1 2 1 3c2 5 6 7 12 7s14 -5 16 -9l-3 -57c-2 -39 -3 -88 -8 -139c25 16 50 34 73 50c78 54 160 110 270 110c58 0 114 -18 167 -36
c55 -18 113 -37 174 -37c52 0 112 11 185 43zM-135 -466c168 0 205 322 217 452c-13 -7 -25 -16 -38 -23v1c-125 -70 -264 -147 -267 -307c0 -57 22 -122 88 -123zM27 68c27 0 55 99 62 125c-10 21 -17 29 -24 29c-25 0 -47 -80 -47 -126c0 -17 3 -28 9 -28z" />
    <glyph glyph-name="h.1" unicode="&#xe025;" horiz-adv-x="1092" 
d="M1093 159l1 1c2 2 5 2 7 2c5 0 10 -4 10 -13c-20 -39 -104 -173 -155 -173c-31 0 -37 32 -37 56c0 26 6 56 11 83c4 23 8 43 8 56c0 5 0 13 -5 13c-31 0 -83 -93 -104 -130l-3 -6c-2 -2 -4 -4 -8 -4c-13 0 -11 20 -11 39v9c0 11 -1 12 0 25c-72 -92 -149 -120 -229 -120
c-72 0 -147 23 -219 46c-73 23 -148 46 -219 46c-43 0 -87 -9 -130 -32l1 1c-2 -2 -4 -2 -6 -2c-5 0 -9 5 -9 10c0 4 2 7 5 9c45 23 94 34 140 34c74 0 147 -23 220 -46s145 -46 216 -46c83 0 160 30 232 133c13 182 65 491 172 491c30 0 40 -27 40 -52
c0 -103 -132 -340 -187 -434l-5 -62c28 47 69 111 105 111c26 0 28 -32 28 -49c0 -22 -4 -49 -8 -74c-4 -23 -8 -45 -8 -61c0 -8 1 -25 11 -25c39 0 119 130 136 164zM981 622c-83 0 -125 -249 -143 -424c55 97 164 295 164 387c0 15 -3 37 -21 37z" />
    <glyph glyph-name="h.2" unicode="&#xe026;" horiz-adv-x="281" 
d="M282 159l1 1c2 2 5 2 7 2c5 0 10 -4 10 -13c-21 -39 -104 -173 -156 -173c-32 0 -36 32 -36 56c0 25 5 57 10 83c4 22 8 43 8 56c0 5 0 13 -5 13c-30 0 -81 -92 -102 -130l-4 -6c-2 -2 -6 -4 -8 -4c-14 0 -12 18 -12 36v8c0 50 5 128 15 206c-12 -2 -24 -3 -37 -3
c-62 0 -128 21 -194 42c-67 21 -135 43 -198 43c-40 0 -80 -7 -119 -28l1 1c-2 -2 -5 -2 -7 -2c-5 0 -9 4 -9 9c0 3 4 8 14 14c33 18 72 25 115 25c64 0 132 -22 201 -43c68 -21 135 -42 195 -42c14 0 27 1 41 4c23 161 71 327 156 327c29 0 41 -24 41 -60
c0 -86 -71 -247 -170 -279c-11 -74 -17 -133 -22 -209c27 47 68 111 104 111c27 0 28 -32 28 -49c0 -22 -4 -49 -8 -74c-4 -23 -8 -45 -8 -61c0 -8 1 -25 11 -25c39 0 119 130 137 164zM169 622c-64 0 -103 -149 -126 -299c81 37 148 181 148 255c0 27 -5 44 -22 44z" />
    <glyph glyph-name="h.3" unicode="&#xe027;" horiz-adv-x="1018" 
d="M1008 111h4c5 0 10 -4 10 -9c0 -4 -2 -8 -5 -9c-45 -24 -94 -34 -140 -34c-74 0 -146 23 -219 46c-72 23 -145 46 -216 46c-117 0 -177 -69 -222 -120c-27 -30 -48 -55 -76 -55c-31 0 -37 32 -37 56c0 26 6 56 11 83c4 23 8 43 8 56c0 5 0 13 -5 13
c-31 0 -83 -93 -104 -130l-3 -6c-2 -2 -4 -4 -8 -4c-13 0 -11 19 -11 36v8c0 156 45 553 174 553c29 0 41 -27 41 -52c0 -103 -133 -343 -187 -434c-3 -30 -4 -39 -5 -60c26 47 68 109 104 109c27 0 28 -32 28 -49c0 -22 -4 -49 -8 -74c-4 -23 -8 -45 -8 -61
c0 -8 1 -25 11 -25c17 0 37 22 60 49c45 52 110 126 234 126c71 0 147 -22 219 -45c73 -23 148 -46 218 -46c45 0 88 8 132 32zM169 622c-84 0 -125 -250 -143 -425c56 97 164 299 164 393c0 14 -4 32 -21 32z" />
    <glyph glyph-name="i.1" unicode="&#xe028;" horiz-adv-x="985" 
d="M832 181c-7 0 -13 7 -13 14c0 8 7 14 14 14c6 0 13 -6 13 -13c0 -10 -6 -15 -14 -15zM990 166l1 1c1 1 3 3 7 3c5 0 10 -6 10 -13c-22 -45 -87 -144 -143 -144c-42 0 -52 52 -52 99c0 15 0 21 1 33c-116 -87 -203 -115 -278 -115c-58 0 -114 18 -167 35
c-55 18 -113 37 -174 37c-54 0 -112 -10 -185 -42l1 1c-2 -2 -4 -2 -6 -2c-5 0 -9 5 -9 10c0 4 2 7 5 9c75 33 138 44 194 44c64 0 120 -19 176 -37c54 -18 107 -35 163 -35c76 0 164 28 286 123h-1c3 3 7 4 11 4c7 0 14 -5 14 -12c0 -6 -1 -15 -2 -25c-1 -13 -3 -28 -3 -43
c0 -32 5 -65 25 -65c46 0 106 96 126 134z" />
    <glyph glyph-name="i.2" unicode="&#xe029;" horiz-adv-x="921" 
d="M911 150h5c5 0 9 -4 9 -9c0 -4 -1 -8 -5 -9c-72 -32 -133 -43 -187 -43c-67 0 -126 19 -183 37c-55 18 -109 35 -166 35c-101 0 -181 -55 -238 -97c-36 -26 -72 -51 -99 -51c-42 0 -52 52 -52 99v5c0 28 0 60 17 60c7 0 14 -5 14 -12c0 -6 -1 -15 -2 -25
c-1 -13 -3 -28 -3 -43c0 -32 5 -65 25 -65c23 0 52 21 87 46c62 43 143 102 252 102c58 0 114 -18 167 -35c55 -18 113 -37 174 -37c53 0 112 10 185 42zM14 181c-7 0 -13 7 -13 14c0 8 7 14 14 14c6 0 13 -6 13 -13c0 -10 -6 -15 -14 -15z" />
    <glyph glyph-name="j.1" unicode="&#xe02a;" horiz-adv-x="979" 
d="M830 181c-8 0 -14 7 -14 14c0 8 7 14 14 14c8 0 14 -7 14 -14c0 -8 -7 -14 -14 -14zM981 160l1 1c1 1 3 3 7 3c5 0 10 -4 10 -13c-30 -60 -89 -106 -156 -153c-5 -210 -33 -488 -194 -488c-70 0 -103 70 -103 131c0 175 142 270 270 361c1 59 1 105 1 145
c-118 -91 -205 -117 -281 -117c-58 0 -114 18 -167 36c-55 18 -113 37 -174 37c-53 0 -112 -11 -187 -43c-8 0 -12 5 -12 10c0 4 2 7 5 9c75 32 138 43 194 43c65 0 122 -19 178 -37c54 -18 107 -35 164 -35c75 0 163 29 283 123h-1c3 3 7 4 11 4c12 0 15 -24 15 -53
c0 -9 -1 -19 -1 -29v-25v-49c58 42 109 84 137 139zM649 -470c134 1 162 251 167 449c-120 -85 -248 -174 -251 -335c0 -52 26 -114 84 -114z" />
    <glyph glyph-name="j.2" unicode="&#xe02b;" horiz-adv-x="76" 
d="M9 181c-8 0 -14 7 -14 14c0 8 7 14 14 14c8 0 14 -7 14 -14c0 -8 -7 -14 -14 -14zM569 -126h4c5 0 10 -5 10 -10c0 -4 -2 -7 -5 -8c-45 -23 -94 -34 -141 -34c-75 0 -150 23 -225 46c-66 21 -131 42 -193 45c-11 -193 -52 -403 -191 -403c-70 0 -103 70 -103 131
c0 146 109 286 268 292c2 52 2 102 2 154c0 26 1 53 1 80c0 7 6 10 13 10s14 -4 14 -14v-78c0 -52 0 -100 -3 -153c63 -3 130 -23 195 -44c73 -23 151 -46 222 -46c45 0 88 9 132 32zM-172 -470c119 0 154 199 164 383c-146 -2 -248 -138 -248 -269c0 -52 25 -114 84 -114z
" />
    <glyph glyph-name="j.3" unicode="&#xe02c;" horiz-adv-x="889" 
d="M879 145h4c7 0 10 -4 10 -9c0 -4 -1 -8 -5 -9c-75 -33 -138 -44 -194 -44c-64 0 -121 19 -177 37c-54 18 -107 35 -163 35c-118 0 -205 -63 -290 -126c-13 -10 -28 -22 -42 -31c-5 -210 -33 -488 -194 -488c-70 0 -103 70 -103 131c0 175 142 270 270 361
c1 66 1 124 1 165c0 7 6 10 13 10c12 0 15 -22 15 -49c0 -10 -1 -20 -1 -30v-28v-49l30 23c89 65 179 131 300 131c58 0 114 -18 167 -35c55 -18 113 -37 174 -37c52 0 111 10 185 42zM-172 -470c133 1 161 251 167 449c-120 -85 -248 -174 -251 -335c0 -52 25 -114 84 -114
zM9 181c-8 0 -14 7 -14 14c0 8 7 14 14 14c8 0 14 -7 14 -14c0 -8 -7 -14 -14 -14z" />
    <glyph glyph-name="k.1" unicode="&#xe02d;" horiz-adv-x="1031" 
d="M1033 160l1 1c1 1 5 3 8 3c5 0 9 -4 9 -13c-24 -48 -88 -143 -149 -143c-34 0 -60 19 -73 47l-4 -43c-4 -5 -7 -7 -10 -7c-12 0 -10 16 -10 32v9c0 22 0 39 2 71c-72 -92 -149 -120 -229 -120c-72 0 -147 23 -219 46c-73 23 -148 46 -219 46c-43 0 -87 -9 -130 -32l1 1
c-2 -2 -4 -2 -6 -2c-5 0 -9 5 -9 10c0 2 2 6 5 8c45 24 94 34 141 34c74 1 147 -23 220 -46c72 -23 145 -45 215 -45c83 0 161 31 232 134c15 180 61 455 169 455c35 0 46 -35 46 -64c0 -93 -105 -256 -171 -358l-16 -25l-3 -30c26 30 82 69 102 69c6 0 11 -6 11 -12
c0 -5 -13 -12 -30 -22c-31 -17 -77 -43 -78 -68c0 -28 32 -69 63 -69c51 0 109 92 131 133zM978 587c-81 0 -120 -222 -138 -390c64 99 162 249 165 341c0 19 -3 49 -27 49z" />
    <glyph glyph-name="k.2" unicode="&#xe02e;" horiz-adv-x="218" 
d="M220 160l1 1c1 1 5 3 7 3c5 0 10 -4 10 -13c-25 -48 -87 -143 -150 -143c-41 0 -72 32 -80 68l8 1c0 -6 -1 -13 -1 -20c-1 -27 -2 -52 -14 -52s-10 17 -10 34v9c0 56 4 149 19 244c-8 -1 -17 -1 -24 -1c-62 0 -130 21 -196 42c-62 20 -130 41 -190 43
c-43 0 -83 -6 -124 -28l1 1c-2 -2 -5 -2 -7 -2c-5 0 -9 4 -9 9c0 3 4 8 14 14c33 18 74 25 116 25c66 0 135 -22 203 -43c66 -21 131 -41 191 -41c9 0 18 0 28 1c23 149 69 294 151 294c33 0 47 -28 47 -68c0 -81 -67 -216 -171 -240c-10 -61 -15 -106 -20 -169
c26 30 82 69 102 69c6 0 11 -6 11 -12c0 -5 -13 -12 -30 -22c-31 -17 -77 -43 -77 -68c0 -29 30 -69 62 -69c51 0 110 92 132 133zM164 587c-63 0 -100 -130 -122 -268c92 26 149 148 149 219c0 29 -7 49 -27 49z" />
    <glyph glyph-name="k.3" unicode="&#xe02f;" horiz-adv-x="950" 
d="M940 111h4c5 0 10 -4 10 -9c0 -4 -2 -8 -5 -9c-45 -24 -94 -34 -140 -34c-74 0 -147 23 -220 46s-145 46 -216 46c-102 0 -155 -50 -197 -91c-30 -28 -54 -52 -87 -52c-34 0 -60 19 -73 47l-4 -43c-4 -5 -7 -7 -10 -7c-12 0 -10 16 -10 32v8c0 147 36 561 173 561
c37 0 46 -38 46 -68c-3 -100 -108 -259 -174 -358l-14 -22c0 -10 0 -14 -2 -27c25 31 81 67 102 67c6 0 11 -6 11 -12c0 -5 -13 -12 -30 -22c-31 -17 -77 -43 -78 -68c0 -28 32 -69 63 -69c24 0 47 21 73 46c43 43 100 97 208 97c73 0 146 -23 220 -46
c73 -23 147 -45 218 -45c45 0 88 8 132 32zM165 587c-81 0 -120 -222 -138 -390c64 99 162 249 165 341c0 19 -3 49 -27 49z" />
    <glyph glyph-name="l.1" unicode="&#xe030;" horiz-adv-x="1029" 
d="M1069 542c-3 -105 -161 -304 -235 -391c-1 -13 -1 -23 -1 -34c0 -70 15 -117 49 -117c61 0 116 101 146 156v-1c1 3 4 6 5 9v-1c0 3 5 6 7 6c5 0 11 -5 11 -13l-7 -12h1c-34 -61 -91 -163 -163 -163c-52 0 -74 56 -76 135c-71 -90 -147 -119 -228 -119
c-72 0 -147 23 -219 46c-73 23 -148 46 -219 46c-43 0 -87 -9 -130 -32l1 1c-2 -2 -4 -2 -6 -2c-5 0 -9 5 -9 10c0 2 2 6 5 8c45 24 94 34 141 34c74 1 147 -23 220 -46c72 -23 145 -45 215 -45c81 0 160 33 229 130c13 187 111 469 209 469c43 0 54 -40 54 -74zM1016 597
c-81 0 -163 -236 -180 -413c74 88 211 264 214 358c0 24 -5 54 -34 55z" />
    <glyph glyph-name="l.2" unicode="&#xe031;" horiz-adv-x="219" 
d="M40 292l4 3c-6 -29 -21 -110 -21 -179c0 -63 9 -116 49 -116c61 0 116 101 146 156v-1l5 10c2 2 4 4 8 4c5 0 10 -4 10 -14c-31 -58 -92 -174 -169 -174c-54 0 -76 61 -76 146c0 49 7 108 19 165c-57 3 -123 23 -182 41c-67 21 -138 43 -202 43c-39 0 -77 -8 -115 -28
l1 1c-2 -2 -5 -2 -7 -2c-5 0 -9 4 -9 9c0 3 4 8 14 14c33 18 73 25 115 25c68 0 137 -22 205 -43c63 -20 126 -39 185 -41c36 154 111 305 185 305c37 0 54 -28 54 -67c0 -91 -85 -251 -219 -257zM206 597c-60 0 -124 -138 -158 -284c111 12 192 150 192 230
c0 31 -9 53 -34 54z" />
    <glyph glyph-name="l.3" unicode="&#xe032;" horiz-adv-x="955" 
d="M945 119h5c5 0 9 -4 9 -9c0 -4 -1 -8 -5 -9c-75 -33 -138 -44 -194 -44c-65 0 -122 18 -178 37c-54 18 -107 36 -164 36c-104 0 -181 -54 -242 -97c-41 -29 -74 -52 -104 -52c-54 0 -76 62 -76 148c0 187 104 487 209 487c41 0 54 -37 54 -70c0 -104 -159 -304 -235 -395
c-1 -13 -1 -23 -1 -34c0 -70 15 -117 49 -117c25 0 57 22 94 48c63 43 144 101 253 101c58 0 114 -18 167 -35c55 -18 113 -37 174 -37c53 0 111 10 185 42zM206 597c-81 0 -163 -236 -180 -413c74 88 211 264 214 358c0 24 -5 54 -34 55z" />
    <glyph glyph-name="m.1" unicode="&#xe033;" horiz-adv-x="1124" 
d="M1126 161l1 1c2 2 4 2 6 2c6 0 11 -3 11 -11l-10 -19h1c-27 -50 -81 -149 -125 -149c-22 0 -30 19 -30 48c0 36 12 87 23 133c9 37 17 70 17 87c0 7 -1 11 -3 11c-23 0 -59 -86 -82 -139c-9 -24 -18 -44 -24 -44c-5 0 -10 3 -10 10c0 3 0 10 1 15c1 11 3 26 3 38
c0 15 -1 28 -7 28c-16 0 -42 -62 -60 -102c-10 -21 -17 -37 -22 -37s-10 3 -10 10c0 20 3 42 6 63c2 18 5 27 5 41c-118 -89 -206 -116 -281 -116c-58 0 -114 18 -167 36c-55 18 -113 37 -174 37c-53 0 -112 -11 -185 -42l1 1c-2 -2 -4 -2 -6 -2c-5 0 -9 5 -9 10
c0 2 2 7 5 9c72 31 133 43 188 43c66 0 124 -19 181 -37c55 -18 110 -35 167 -35c75 0 164 30 284 124h-1c3 3 6 3 10 3c7 0 14 -4 14 -15l-2 -18l-2 -19c17 33 40 65 58 65c23 0 30 -18 30 -40v-10l-8 1c24 58 62 141 97 141c18 0 24 -17 24 -42c0 -32 -11 -79 -20 -123
c-8 -39 -16 -76 -16 -97c0 -11 2 -17 6 -17c32 0 90 111 112 151c0 1 2 5 3 6z" />
    <glyph glyph-name="m.2" unicode="&#xe034;" horiz-adv-x="1050" 
d="M1040 111l-1 -1c2 2 4 2 6 2c5 0 9 -5 9 -10c0 -4 -2 -8 -5 -9c-45 -24 -94 -34 -140 -34c-74 0 -146 23 -219 46c-72 23 -145 46 -216 46c-117 0 -178 -69 -220 -118c-22 -26 -43 -48 -63 -48c-22 0 -30 19 -30 48c0 37 12 87 23 133c9 36 16 70 16 87c0 7 -1 11 -3 11
c-23 0 -59 -86 -81 -139c-10 -25 -18 -44 -24 -44c-5 0 -10 3 -10 10c0 3 0 10 1 15c1 11 3 26 3 38c0 15 -1 28 -7 28c-17 0 -44 -65 -62 -105c-8 -18 -16 -34 -20 -34c-5 0 -10 3 -10 10c0 21 2 46 5 68c2 19 5 40 5 55c0 7 7 12 13 12c7 0 14 -4 14 -14
c0 -19 -3 -32 -5 -48l-3 -22l-8 3c18 43 47 94 71 94s30 -20 30 -44v-6l-8 1c24 58 61 141 96 141c18 0 24 -17 24 -42c0 -32 -11 -78 -20 -122c-8 -39 -16 -76 -16 -97c0 -11 2 -18 7 -18c12 0 26 19 45 40c41 49 109 126 234 126c71 0 147 -22 219 -45
c73 -23 148 -46 218 -46c45 0 88 8 132 32z" />
    <glyph glyph-name="n.1" unicode="&#xe035;" horiz-adv-x="1041" 
d="M1043 161l1 1c2 2 4 2 7 2c5 0 10 -3 10 -12l-7 -12h1c-25 -47 -79 -145 -122 -145c-22 0 -29 20 -29 48c0 24 5 57 10 84c4 24 8 47 8 61c0 9 -2 15 -5 15c-22 0 -55 -71 -76 -115c-9 -20 -18 -36 -22 -36c-5 0 -10 4 -10 11c4 31 6 53 8 83
c-118 -90 -205 -116 -281 -116c-58 0 -114 18 -167 35c-55 18 -113 37 -174 37c-53 0 -112 -11 -185 -42l1 1c-2 -2 -4 -2 -6 -2c-5 0 -9 5 -9 10c0 2 2 7 5 9c72 32 133 43 187 43c66 0 125 -19 182 -37c55 -18 110 -35 167 -35c74 0 165 30 284 124h-1c3 3 5 4 10 4
c7 0 14 -4 14 -13c0 -15 -2 -27 -5 -41c0 -4 -2 -8 -2 -12l-8 2c22 48 57 110 88 110c22 0 29 -21 29 -49c0 -24 -5 -58 -10 -85c-4 -23 -8 -45 -8 -59c0 -10 1 -16 5 -16c31 0 83 98 106 139z" />
    <glyph glyph-name="n.2" unicode="&#xe036;" horiz-adv-x="969" 
d="M959 111l-1 -1c2 2 4 2 6 2c4 0 9 -5 9 -10c0 -4 -2 -8 -5 -9c-45 -24 -94 -34 -140 -34c-74 0 -147 23 -220 46s-145 46 -216 46c-112 0 -173 -65 -215 -111c-23 -25 -40 -45 -60 -45c-22 0 -29 19 -29 47c0 25 6 56 11 85c4 24 8 47 8 61c0 9 -2 15 -5 15
c-24 0 -57 -73 -78 -116c-9 -19 -13 -35 -21 -35c-5 0 -9 4 -9 9c0 19 2 39 4 58c2 16 4 32 4 47c0 7 7 10 13 10c7 0 14 -3 14 -12c0 -13 -2 -22 -4 -32l-3 -22l-8 3c22 48 57 110 88 110c22 0 29 -21 29 -49c0 -24 -5 -58 -10 -85c-4 -23 -8 -45 -8 -59c0 -10 1 -16 5 -16
c10 0 25 17 44 38c41 46 108 118 227 118c73 0 146 -23 220 -46c73 -23 147 -45 218 -45c45 0 88 8 132 32z" />
    <glyph glyph-name="o.1" unicode="&#xe037;" horiz-adv-x="1022" 
d="M1023 159c2 4 4 4 8 4c7 0 10 -4 10 -13c-21 -42 -61 -79 -111 -80c-6 0 -9 0 -13 1c-13 -24 -35 -41 -63 -41c-44 0 -66 37 -66 76c0 8 0 16 2 24c-105 -74 -185 -97 -254 -97c-58 0 -114 18 -167 35c-55 18 -113 37 -174 37c-54 0 -112 -10 -187 -42c-8 0 -12 5 -12 9
s2 7 5 9c75 33 138 44 194 44c64 0 120 -19 176 -37c54 -18 107 -35 163 -35c75 0 163 28 283 120h-1c2 2 7 7 13 7c4 0 9 -5 9 -10c0 -2 0 -4 -2 -6c-12 -12 -20 -35 -20 -57c0 -29 12 -58 39 -58c18 0 30 13 38 29c-36 19 -60 68 -60 106c0 30 13 54 43 54
c44 0 60 -49 60 -85c0 -21 -3 -44 -10 -63h4c42 0 75 33 93 69zM904 95l-5 -3c6 18 9 39 9 57c0 22 -5 69 -33 69c-15 0 -22 -14 -22 -35c0 -32 18 -75 51 -88z" />
    <glyph glyph-name="o.2" unicode="&#xe038;" horiz-adv-x="997" 
d="M987 196h4c5 0 10 -5 10 -10c0 -4 -1 -8 -5 -9c-75 -32 -138 -43 -194 -43c-65 0 -122 19 -178 37c-54 18 -107 35 -164 35c-98 0 -167 -46 -224 -85c-34 -23 -81 -51 -110 -51c-5 0 -8 0 -12 1c-14 -24 -35 -41 -64 -41c-43 0 -65 37 -65 76c0 18 13 74 40 74
c5 0 9 -7 9 -15c-14 -13 -21 -36 -21 -58c0 -29 12 -58 38 -58c19 0 30 13 38 29c-38 18 -59 66 -59 105c0 30 13 55 43 55c48 0 59 -56 59 -92c0 -19 -3 -39 -9 -56h3c29 0 63 23 100 47c58 39 133 89 235 89c58 0 114 -18 167 -36c55 -18 113 -37 174 -37
c53 0 112 11 185 43zM100 95l-5 -3c7 18 10 39 10 57c0 22 -6 69 -34 69c-14 0 -22 -14 -22 -35c0 -32 18 -75 51 -88z" />
    <glyph glyph-name="p.1" unicode="&#xe039;" horiz-adv-x="1055" 
d="M1056 159l1 1c1 1 3 3 7 3c5 0 10 -4 10 -13c-24 -46 -73 -75 -118 -94c-12 -41 -37 -77 -70 -77c-17 0 -32 12 -32 30c0 31 39 46 67 56c4 2 8 3 11 4c4 20 6 42 6 59c0 27 -3 48 -12 48c-19 0 -51 -40 -87 -99c-5 -87 -33 -456 -149 -456c-29 0 -35 25 -35 48
c0 71 81 263 157 395l4 82c-118 -89 -204 -115 -280 -115c-58 0 -114 18 -167 35c-55 18 -113 37 -174 37c-53 0 -112 -11 -185 -42l1 1c-2 -2 -4 -2 -6 -2c-5 0 -9 5 -9 10c0 2 2 7 5 9c72 31 133 43 188 43c66 0 124 -19 181 -37c55 -18 110 -35 167 -35
c74 0 164 30 283 123h-1c3 3 7 4 11 4c7 0 14 -4 14 -14l-2 -50c33 50 64 82 84 82c28 0 40 -33 40 -73c0 -13 -1 -26 -4 -40c37 18 75 39 94 77zM689 -360c89 0 114 295 120 385c-68 -126 -135 -295 -135 -357c0 -12 2 -28 15 -28zM886 -2c17 0 30 20 39 47c-1 -1 1 0 0 0
h1c-18 -7 -53 -19 -53 -36c0 -7 6 -11 13 -11z" />
    <glyph glyph-name="p.2" unicode="&#xe03a;" horiz-adv-x="1009" 
d="M1001 110h3c5 0 9 -5 9 -9c0 -5 -2 -8 -7 -10c-59 -19 -109 -26 -155 -26c-83 0 -149 29 -214 57c-62 27 -124 54 -195 54c-87 0 -149 -34 -213 -71c-31 -18 -66 -38 -93 -49c-12 -41 -37 -77 -70 -77c-18 0 -32 12 -32 30c0 31 39 46 67 56c4 2 8 3 11 4c4 20 6 42 6 59
c0 27 -4 48 -12 48c-20 0 -51 -40 -87 -99c-5 -87 -33 -456 -149 -456c-29 0 -35 25 -35 48c0 70 79 263 157 395c0 9 1 26 1 34c1 42 1 79 16 79c8 0 15 -4 15 -14l-2 -50c33 50 64 82 84 82c28 0 40 -33 40 -73c0 -13 -1 -28 -4 -41c30 13 58 29 84 44
c65 36 130 71 217 71c76 0 137 -27 200 -54c65 -28 131 -57 210 -57c42 0 91 7 148 25zM-131 -360c89 0 114 295 120 385c-68 -126 -135 -295 -135 -357c0 -12 2 -28 15 -28zM66 -2c17 0 30 20 39 47c-1 -1 1 0 0 0h1c-18 -7 -53 -19 -53 -36c0 -7 6 -11 13 -11z" />
    <glyph glyph-name="q.1" unicode="&#xe03b;" horiz-adv-x="1043" 
d="M1046 161l1 1c1 1 3 3 6 3c6 0 11 -7 11 -13l-8 -13c-28 -48 -80 -146 -131 -204c42 -38 59 -119 59 -203c0 -111 -35 -223 -91 -223c-49 0 -61 105 -61 204c0 58 4 114 6 148c1 8 2 16 2 21c-22 2 -33 19 -33 35c0 18 11 36 40 42c4 40 9 81 13 115v1c2 14 0 -5 1 8
c-15 -37 -32 -65 -55 -65c-24 0 -34 26 -34 58c0 24 7 55 15 78c-100 -70 -180 -94 -247 -94c-59 0 -116 18 -170 35c-55 18 -114 37 -175 37c-53 0 -112 -11 -185 -42l1 1c-2 -2 -4 -2 -6 -2c-5 0 -9 5 -9 10c0 2 2 7 5 9c72 31 133 43 188 43c66 0 124 -19 181 -37
c55 -18 110 -35 167 -35c75 0 161 29 279 120h-1c8 6 16 12 27 12c15 0 27 -6 39 -28h-8l3 8v-1c1 6 7 9 13 9c7 0 14 -5 14 -11c0 -14 -5 -47 -10 -83c-6 -42 -13 -91 -19 -146c11 -2 25 -6 36 -13c50 59 89 128 126 195h-1zM892 -471c44 0 69 96 69 198
c0 78 -17 159 -49 193c-13 -14 -28 -27 -44 -34c0 -3 -1 -6 -1 -9c-4 -40 -11 -120 -11 -195c0 -80 8 -153 36 -153zM806 38c24 0 49 76 63 126c-9 20 -18 28 -24 28c-27 0 -47 -80 -47 -126c0 -17 3 -28 8 -28zM841 -99l5 37c-15 -4 -20 -12 -20 -20c0 -7 7 -14 15 -17z
M869 -60l4 3c-2 -12 -3 -22 -4 -34c10 6 18 13 27 22c-8 4 -17 8 -27 9z" />
    <glyph glyph-name="q.2" unicode="&#xe03c;" horiz-adv-x="1005" 
d="M994 111h5c5 0 10 -4 10 -9c0 -4 -2 -8 -5 -9c-45 -24 -94 -34 -141 -34c-74 0 -146 23 -219 46c-72 23 -145 46 -216 46c-134 0 -184 -69 -240 -147c-18 -24 -34 -51 -52 -69c43 -38 60 -119 60 -202c0 -112 -36 -224 -92 -224c-49 0 -61 103 -61 202c0 77 6 149 8 171
c-23 2 -33 19 -33 35c0 18 11 36 40 42c4 40 9 81 13 115v1c2 14 0 -5 1 8c-15 -37 -32 -65 -55 -65c-24 0 -34 27 -34 59c0 57 31 134 72 134c11 0 21 -6 32 -21v1v-1c1 6 7 9 13 9c7 0 14 -5 14 -11c0 -14 -5 -47 -10 -83c-6 -42 -13 -91 -19 -146c11 -2 25 -6 36 -13
c20 24 37 46 55 70c58 80 114 154 249 154c71 0 147 -22 219 -45c73 -23 148 -46 218 -46c45 0 88 8 132 32zM103 -471c44 0 69 96 69 198c0 78 -17 159 -49 193c-13 -14 -28 -27 -44 -34c0 -3 -1 -6 -1 -9c-4 -40 -11 -120 -11 -195c0 -80 8 -153 36 -153zM17 38
c24 0 49 76 63 126c-9 20 -18 28 -24 28c-27 0 -47 -80 -47 -126c0 -17 3 -28 8 -28zM52 -99l5 37c-15 -4 -20 -12 -20 -20c0 -7 7 -14 15 -17zM84 -60l-4 -31c10 6 19 14 28 23c-8 4 -14 7 -24 8z" />
    <glyph glyph-name="r.1" unicode="&#xe03d;" horiz-adv-x="1049" 
d="M1053 163v1c1 1 5 3 8 3c5 0 9 -5 9 -12l-7 -11h1c-32 -60 -116 -214 -171 -214c-29 0 -37 28 -37 51c0 24 6 52 11 76c4 18 7 34 7 43c0 19 -16 37 -32 54l-12 14c-79 -117 -163 -152 -252 -152c-72 0 -147 23 -219 46c-73 23 -148 46 -219 46c-43 0 -87 -9 -130 -32
l1 1c-2 -2 -4 -2 -6 -2c-5 0 -9 5 -9 10c0 2 2 6 5 8c45 24 94 34 141 34c74 1 147 -23 220 -46c72 -23 145 -45 215 -45c86 0 167 34 241 147c-11 14 -17 29 -17 47c0 19 13 46 36 46c17 0 23 -14 23 -27c0 -20 -10 -46 -18 -63l16 -17c19 -20 39 -40 39 -76
c0 -8 -2 -23 -5 -38c-4 -23 -8 -53 -8 -74c0 -9 0 -31 11 -31c39 0 118 143 146 195zM832 198h-8c7 15 16 37 17 51c0 3 -1 7 -4 7c-10 0 -14 -18 -14 -27c0 -11 4 -21 9 -31z" />
    <glyph glyph-name="r.2" unicode="&#xe03e;" horiz-adv-x="994" 
d="M983 111h5c5 0 10 -4 10 -9c0 -4 -2 -8 -5 -9c-45 -24 -94 -34 -141 -34c-74 0 -146 23 -219 46c-72 23 -145 46 -216 46c-132 0 -195 -85 -242 -149c-30 -40 -55 -72 -85 -72c-29 0 -37 28 -37 51c0 24 7 52 12 76c4 18 7 34 7 43c0 18 -18 36 -33 54l-10 12
c-7 -16 -16 -31 -25 -31c-4 0 -9 5 -9 10c0 3 6 13 13 24l8 14c-11 14 -17 26 -17 43c0 18 9 50 36 50c16 0 22 -14 22 -27c0 -20 -11 -46 -19 -63l16 -16c19 -19 40 -40 40 -77c0 -8 -2 -23 -5 -38c-4 -23 -8 -53 -8 -74c0 -9 1 -31 12 -31c20 0 39 27 64 60
c48 66 120 160 257 160c73 0 146 -23 220 -46c73 -23 147 -45 218 -45c44 0 87 8 131 32zM22 198l3 6c6 14 13 33 13 45c0 3 0 7 -3 7c-10 0 -14 -18 -14 -27c0 -13 3 -22 8 -31h-7z" />
    <glyph glyph-name="s.1" unicode="&#xe03f;" horiz-adv-x="956" 
d="M959 162l1 1c1 1 5 3 7 3c5 0 10 -4 10 -13c-24 -50 -72 -78 -118 -101c10 -25 18 -54 18 -82c0 -51 -41 -83 -89 -83c-38 0 -72 22 -72 64c0 56 59 85 104 105h1l7 3l-3 10c-12 36 -26 76 -26 115c0 7 0 14 1 20c-106 -74 -195 -104 -264 -104c-58 0 -114 18 -167 35
c-55 18 -113 37 -174 37c-54 0 -112 -10 -185 -42l1 1c-2 -2 -4 -2 -6 -2c-5 0 -9 5 -9 10c0 4 2 7 5 9c75 33 138 44 194 44c64 0 120 -19 176 -37c54 -18 107 -35 163 -35c75 0 163 28 284 121h-1c9 8 20 11 31 11c20 0 37 -17 37 -40c0 -6 0 -20 -11 -20c-5 0 -9 5 -9 12
c1 3 1 5 1 8c0 13 -8 21 -19 21c-12 0 -26 -13 -26 -46c0 -41 14 -78 30 -116c42 21 87 48 108 91zM788 -94c36 0 60 23 60 59c0 24 -6 50 -14 76c-3 -1 -6 -3 -7 -4c-38 -17 -92 -42 -92 -86c0 -28 25 -44 53 -45z" />
    <glyph glyph-name="s.2" unicode="&#xe040;" horiz-adv-x="935" 
d="M925 194h4c5 0 9 -4 9 -9c0 -4 -1 -8 -5 -9c-75 -33 -138 -44 -193 -44c-62 0 -123 19 -178 37c-54 18 -109 36 -165 36c-103 0 -169 -46 -238 -92c-34 -23 -66 -45 -97 -61c10 -25 18 -54 18 -82c0 -51 -39 -83 -88 -83c-39 0 -73 22 -73 64c0 56 59 85 104 105h1l7 3
l-3 10c-12 36 -26 76 -26 115c0 50 23 68 49 68c20 0 38 -16 38 -39c0 -7 -2 -21 -12 -21c-5 0 -9 5 -9 12c1 3 1 6 1 9c0 12 -9 20 -18 20c-13 0 -27 -14 -27 -49c0 -37 14 -75 28 -109c0 0 1 -3 2 -4c40 19 70 40 99 59c71 47 137 94 245 94c58 0 114 -18 168 -35
c55 -18 113 -37 174 -37c52 0 111 10 185 42zM-9 -94c35 0 61 23 61 59c0 25 -7 50 -15 76c-3 -1 -6 -1 -10 -5c-36 -17 -89 -41 -89 -85c0 -28 25 -44 53 -45z" />
    <glyph glyph-name="t.1" unicode="&#xe041;" horiz-adv-x="1125" 
d="M1128 161v1c1 1 5 3 7 3c5 0 10 -4 10 -13l-7 -14c-39 -73 -140 -256 -204 -256c-41 0 -55 58 -55 139c0 89 16 207 34 310c-55 -157 -151 -333 -335 -333c-75 0 -147 22 -220 45c-70 22 -140 44 -210 46c-48 0 -93 -8 -141 -33c-7 0 -11 6 -11 11c0 2 1 6 4 8
c44 23 93 33 140 33c76 0 149 -23 222 -46c72 -23 143 -45 215 -45c202 0 299 247 348 414l-149 -11c-5 0 -9 4 -9 9s2 8 7 10l156 12l7 28c8 36 20 82 29 82c4 0 9 -2 11 -7c-2 -16 -7 -51 -16 -101l100 9c7 0 10 -5 10 -10s-4 -10 -9 -10c-36 -2 -69 -6 -105 -8
c-22 -126 -53 -315 -53 -431c0 -61 8 -101 30 -101c50 0 143 169 183 240h-1c4 8 9 14 12 19z" />
    <glyph glyph-name="t.2" unicode="&#xe042;" horiz-adv-x="240" 
d="M739 496v-1c0 6 4 6 8 6c5 0 11 -4 11 -10c-21 -58 -121 -79 -262 -79c-93 0 -212 9 -338 18l-84 6c0 -2 -1 -3 -2 -5c-12 -64 -53 -289 -53 -424c0 -61 8 -105 30 -105c50 0 143 169 183 240h-1c4 8 10 16 13 21c1 1 4 2 6 2c5 0 10 -4 10 -13l-7 -14
c-39 -73 -140 -256 -204 -256c-41 0 -55 60 -55 141c0 144 43 359 55 416c-112 8 -227 14 -333 14c-133 0 -253 -11 -339 -46c-7 0 -11 5 -11 10c0 4 2 7 5 9c85 35 209 46 347 46c108 0 220 -7 334 -15l10 45c6 33 11 59 19 59c4 0 9 -2 11 -7c-1 -11 -4 -35 -9 -61
c-2 -13 -5 -23 -7 -37c18 -1 38 -4 55 -5c136 -11 263 -20 364 -20c132 0 227 16 244 65z" />
    <glyph glyph-name="t.3" unicode="&#xe043;" horiz-adv-x="990" 
d="M980 111l-1 -1c2 2 4 2 6 2c5 0 9 -5 9 -10c0 -4 -2 -8 -5 -9c-45 -24 -94 -34 -140 -34c-74 0 -146 23 -219 46c-72 23 -145 46 -216 46c-136 0 -209 -101 -263 -177c-35 -49 -66 -92 -103 -92c-41 0 -55 58 -55 139c0 121 30 292 54 410l-156 -11c-5 0 -9 4 -9 9
s2 8 7 10l162 13l21 103c1 4 5 6 9 6c5 0 10 -2 10 -8c-1 -16 -7 -55 -15 -100l100 9c5 0 9 -5 9 -10s-4 -10 -9 -10c-35 -2 -69 -6 -104 -8c-22 -126 -54 -315 -54 -431c0 -61 9 -101 31 -101c29 0 55 36 87 82c55 80 128 186 276 186c71 0 145 -22 217 -45
c73 -23 149 -46 219 -46c45 0 88 8 132 32z" />
    <glyph glyph-name="u.1" unicode="&#xe044;" horiz-adv-x="1132" 
d="M1137 166l1 1c2 2 4 2 6 2c6 0 11 -3 11 -12c0 0 -3 -5 -6 -9h1c-26 -49 -83 -152 -141 -152c-40 0 -52 44 -52 95c0 21 -2 15 1 36c-23 -50 -55 -98 -92 -98c-42 0 -52 54 -52 102c0 9 -1 9 0 16c-116 -87 -203 -115 -278 -115c-58 0 -114 18 -167 36
c-55 18 -113 37 -174 37c-53 0 -112 -11 -187 -43c-8 0 -12 5 -12 10c0 4 2 7 5 9c75 32 138 43 194 43c64 0 120 -19 176 -37c54 -18 107 -35 163 -35c76 0 165 28 287 123h-1c3 3 6 4 9 4c7 0 13 -6 14 -17c-2 -15 -4 -33 -4 -50c0 -34 6 -64 29 -64c47 0 93 137 106 181
c2 4 7 8 12 8c7 0 15 -5 15 -12l-3 -18c-6 -32 -18 -88 -18 -131c0 -35 7 -61 29 -61c48 0 107 112 128 151z" />
    <glyph glyph-name="u.2" unicode="&#xe045;" horiz-adv-x="1053" 
d="M1043 124h4c7 0 10 -4 10 -9c0 -4 -1 -8 -5 -9c-75 -33 -138 -44 -194 -44c-65 0 -122 19 -178 37c-54 18 -107 35 -164 35c-87 0 -163 -49 -223 -88c-42 -28 -77 -50 -103 -50c-40 0 -49 49 -49 95c0 13 0 25 1 36c-23 -50 -55 -98 -92 -98c-42 0 -52 53 -52 100v4
c0 21 0 46 15 46c7 0 13 -6 14 -17c-2 -15 -4 -35 -4 -53c0 -32 5 -61 28 -61c46 0 93 135 106 181c2 4 8 8 13 8c7 0 14 -3 14 -10c0 -8 -2 -23 -6 -41c-6 -32 -15 -76 -15 -111c0 -34 7 -60 27 -60c19 0 50 21 85 43c63 40 154 96 242 96c58 0 114 -18 167 -35
c55 -18 113 -37 174 -37c53 0 111 10 185 42z" />
    <glyph glyph-name="v.1" unicode="&#xe046;" horiz-adv-x="1118" 
d="M1120 161l1 1c2 2 4 2 6 2c6 0 11 -6 11 -12c-16 -33 -70 -113 -116 -113c-25 0 -39 21 -45 42c-23 -49 -81 -164 -123 -164c-31 0 -38 58 -38 119c0 26 1 53 2 76c1 12 1 26 1 36c-119 -91 -206 -118 -283 -118c-58 0 -114 18 -167 36c-55 18 -113 37 -174 37
c-53 0 -112 -11 -187 -43c-8 0 -12 5 -12 10c0 4 2 7 5 9c75 32 138 43 194 43c64 0 120 -19 176 -37c54 -18 107 -35 163 -35c76 0 164 28 287 123l-2 -1c1 4 5 5 10 5c8 0 17 -6 17 -14c0 -11 -1 -29 -2 -50c-2 -30 -4 -68 -4 -100c0 -43 3 -77 16 -77
c30 0 100 142 115 179c-1 8 -3 22 -3 39c0 34 7 74 34 74c12 0 18 -9 18 -22c0 -29 -21 -75 -28 -91c2 -19 9 -56 30 -56c36 0 83 75 98 102zM1002 209c-7 -1 -11 -26 -12 -45c5 14 11 33 11 42c0 2 0 3 1 3z" />
    <glyph glyph-name="v.2" unicode="&#xe047;" horiz-adv-x="1061" 
d="M1051 167h4c5 0 9 -5 9 -10c0 -4 -1 -8 -5 -9c-75 -32 -138 -43 -194 -43c-64 0 -120 19 -176 37c-54 18 -107 35 -164 35c-104 0 -182 -53 -240 -94c-35 -25 -62 -44 -84 -44c-24 0 -38 21 -44 42c-23 -49 -80 -164 -123 -164c-31 0 -38 60 -38 122c0 24 1 47 2 68
c1 16 1 31 1 42c0 4 -1 8 -1 11v6c0 8 4 11 12 11c7 0 16 -4 16 -14c0 -11 -1 -29 -2 -50c-2 -30 -4 -68 -4 -100c0 -43 3 -77 16 -77c32 0 101 142 115 179c-1 8 -2 23 -2 39c0 34 6 74 33 74c12 0 18 -9 18 -22c0 -29 -21 -75 -28 -91c2 -19 9 -56 30 -56
c16 0 42 19 71 38c58 41 143 100 251 100c58 0 114 -18 167 -35c55 -18 113 -37 174 -37c53 0 112 10 186 42zM182 209c-7 -1 -11 -26 -12 -45c5 14 11 33 11 42c0 2 0 3 1 3z" />
    <glyph glyph-name="w.1" unicode="&#xe048;" horiz-adv-x="1256" 
d="M1258 161l1 1c2 2 4 2 6 2c5 0 10 -6 10 -12c-18 -36 -71 -113 -116 -113c-24 0 -39 21 -46 42c-25 -52 -67 -123 -116 -123c-39 0 -51 41 -51 92c0 20 2 45 5 66c-22 -47 -52 -88 -88 -88c-40 0 -50 44 -50 87c0 10 0 19 1 29c-116 -87 -203 -114 -278 -114
c-58 0 -114 18 -167 35c-55 18 -113 37 -174 37c-54 0 -112 -10 -187 -42c-8 0 -12 5 -12 10c0 4 2 7 5 9c75 32 138 43 194 43c64 0 120 -19 176 -37c54 -18 107 -35 163 -35c76 0 164 28 287 123l-2 -1c1 4 6 5 11 5c7 0 14 -3 14 -12s-2 -21 -3 -31c-2 -11 -3 -21 -3 -31
c0 -30 6 -55 25 -55c48 0 94 132 108 181c2 5 8 9 13 9c7 0 14 -5 14 -11c0 -10 -4 -31 -9 -55c-8 -40 -18 -92 -18 -133c0 -36 6 -62 26 -62c42 0 91 94 110 137c-1 6 -2 17 -2 31c0 36 7 83 34 83c10 0 18 -11 18 -22c0 -29 -21 -75 -28 -91c2 -19 9 -56 30 -56
c35 0 82 72 99 102zM1139 209c-7 -1 -11 -26 -12 -45c5 14 11 33 11 42c0 2 0 3 1 3z" />
    <glyph glyph-name="w.2" unicode="&#xe049;" horiz-adv-x="1203" 
d="M1193 168h4c5 0 9 -4 9 -9c0 -4 -1 -8 -5 -9c-72 -32 -133 -43 -186 -43c-67 0 -126 19 -183 37c-55 18 -109 35 -167 35c-97 0 -177 -54 -237 -95c-37 -25 -66 -45 -87 -45c-25 0 -38 20 -45 41c-26 -51 -70 -122 -116 -122c-39 0 -51 41 -51 92c0 20 2 45 5 66
c-22 -47 -52 -88 -87 -88c-41 0 -51 45 -51 87v4c0 24 0 58 17 58c7 0 14 -5 14 -12c0 -9 -2 -21 -3 -31c-2 -11 -3 -21 -3 -31c0 -30 6 -55 25 -55c48 0 94 132 108 181c2 5 8 9 13 9c7 0 14 -5 14 -11c0 -10 -4 -31 -9 -55c-8 -40 -18 -92 -18 -133c0 -36 6 -62 26 -62
c42 0 91 94 110 137c-1 6 -2 17 -2 31c0 36 7 83 34 83c10 0 18 -11 18 -22c0 -29 -21 -75 -28 -91c2 -19 9 -56 30 -56c14 0 38 16 70 37c62 41 152 102 252 102c58 0 115 -18 169 -35c55 -18 114 -37 175 -37c52 0 112 11 185 42zM322 209c-7 -1 -11 -26 -12 -45
c5 14 11 33 11 42c0 2 0 3 1 3z" />
    <glyph glyph-name="x.1" unicode="&#xe04a;" horiz-adv-x="1041" 
d="M1044 161l1 1c1 1 5 3 7 3c5 0 10 -4 10 -14c-23 -42 -108 -197 -162 -197c-28 0 -46 26 -58 64c-37 -41 -67 -75 -67 -116c-2 -5 -7 -7 -10 -7c-5 0 -9 2 -9 8c0 50 38 91 79 137c-9 35 -14 75 -17 109c-119 -90 -207 -118 -282 -118c-58 0 -114 18 -167 35
c-55 18 -113 37 -174 37c-54 0 -112 -10 -185 -42l1 1c-2 -2 -4 -2 -6 -2c-5 0 -9 5 -9 10c0 4 2 7 5 9c75 33 138 44 194 44c64 0 120 -19 176 -37c54 -18 107 -35 163 -35c76 0 165 28 287 123h-1c3 3 5 4 10 4c13 0 19 -42 23 -81v1l5 -34c38 42 74 89 87 150
c1 4 5 6 9 6c7 0 10 -4 10 -10c-14 -72 -59 -123 -102 -170c9 -36 21 -67 39 -67c40 0 123 150 143 188z" />
    <glyph glyph-name="x.2" unicode="&#xe04b;" horiz-adv-x="969" 
d="M959 111l-1 -1c2 2 4 2 6 2c5 0 9 -5 9 -10c0 -4 -2 -8 -5 -9c-45 -24 -94 -34 -140 -34c-74 0 -146 23 -219 46c-72 23 -145 46 -216 46c-125 0 -187 -78 -234 -136v1c-28 -35 -50 -62 -77 -62c-28 0 -46 26 -58 64c-37 -41 -67 -75 -67 -115c0 -6 -5 -8 -10 -8
c-4 0 -9 2 -9 8c0 50 38 91 79 137c-10 40 -14 88 -17 127c0 6 4 11 12 11c14 0 19 -39 23 -76c2 -16 1 -28 4 -39c37 42 76 91 88 151c1 4 5 6 9 6c7 0 10 -4 10 -10c-13 -70 -59 -125 -102 -171c9 -36 21 -66 39 -66c17 0 35 23 60 54v-1c47 59 114 144 247 144
c71 0 147 -22 219 -45c73 -23 148 -46 218 -46c45 0 88 8 132 32z" />
    <glyph glyph-name="y.1" unicode="&#xe04c;" horiz-adv-x="1110" 
d="M1112 160l1 1c1 1 5 3 7 3c7 0 10 -6 10 -13c-31 -59 -87 -104 -152 -150c-2 -122 -14 -491 -197 -491c-70 0 -105 68 -105 130c0 172 131 264 257 352l18 13v48v66c-20 -42 -54 -91 -89 -91c-40 0 -51 43 -51 85c0 11 0 22 1 32c-118 -88 -200 -113 -276 -113
c-58 0 -114 18 -167 35c-55 18 -113 37 -174 37c-54 0 -112 -10 -185 -42l1 1c-2 -2 -4 -2 -6 -2c-5 0 -9 5 -9 10c0 4 2 7 5 9c75 33 138 44 194 44c64 0 120 -19 176 -37c54 -18 107 -35 163 -35c76 0 165 28 287 123h-1c3 3 7 4 11 4c6 0 12 -3 12 -13l-3 -30
c-2 -11 -3 -22 -3 -33c0 -29 6 -56 25 -56c30 0 57 55 75 93c11 22 20 39 28 39c12 0 15 -18 15 -39c0 -7 -1 -13 -1 -20v-19c0 -26 0 -47 -1 -77c56 41 105 84 134 136zM779 -470c156 0 168 339 171 451c-122 -86 -254 -174 -254 -341c0 -50 27 -109 83 -110z" />
    <glyph glyph-name="y.2" unicode="&#xe04d;" horiz-adv-x="217" 
d="M706 -126h4c7 0 10 -5 10 -10c0 -4 -2 -6 -4 -8c-46 -24 -93 -34 -141 -34c-76 0 -153 24 -228 47c-64 20 -125 40 -185 44c-9 -158 -44 -403 -194 -403c-69 0 -105 67 -105 127c0 147 108 293 272 296c3 69 3 117 3 186c-20 -42 -54 -91 -90 -91c-40 0 -50 43 -50 85v4
c0 27 0 62 20 62c6 0 11 -3 11 -12c0 -7 -1 -18 -2 -27c-1 -11 -3 -26 -3 -37c0 -29 5 -56 25 -56c29 0 56 56 75 94c11 21 19 38 27 38c6 0 14 -3 15 -10c0 -23 -1 -47 -1 -70c0 -57 0 -110 -3 -167c64 -4 127 -24 191 -44c74 -23 150 -46 222 -46c44 0 88 9 131 32z
M-34 -470c129 0 160 237 168 383c-151 -3 -252 -138 -252 -273c0 -50 28 -109 84 -110z" />
    <glyph glyph-name="y.3" unicode="&#xe04e;" horiz-adv-x="1039" 
d="M1029 154h4c5 0 10 -4 10 -9c0 -4 -1 -8 -5 -9c-72 -31 -133 -43 -188 -43c-66 0 -124 19 -181 37c-55 18 -110 35 -167 35c-116 0 -205 -66 -290 -129c-15 -11 -32 -23 -47 -35c-3 -122 -15 -491 -197 -491c-69 0 -105 67 -105 127c0 171 132 266 254 353l20 15
c1 51 1 77 1 114c-20 -42 -54 -91 -90 -91c-40 0 -50 43 -50 85v4c0 27 0 62 20 62c6 0 11 -3 11 -12c0 -7 -1 -18 -2 -27c-1 -11 -3 -26 -3 -37c0 -29 5 -56 25 -56c29 0 56 56 75 94c11 21 19 38 27 38c6 0 14 -3 15 -10c-1 -19 -1 -43 -1 -69v-76c13 9 25 19 37 28
c89 66 177 132 298 132c58 0 115 -18 169 -35c55 -18 114 -37 175 -37c52 0 112 11 185 42zM-34 -470c155 0 168 339 171 451c-122 -86 -255 -174 -255 -341c0 -50 28 -109 84 -110z" />
    <glyph glyph-name="z.1" unicode="&#xe04f;" horiz-adv-x="1025" 
d="M1027 160l1 1c1 1 5 3 7 3c5 0 10 -4 10 -13c-19 -36 -45 -69 -76 -104c2 -11 1 -25 1 -40c0 -157 -86 -483 -241 -483c-56 0 -75 47 -75 95c0 143 114 253 216 355c26 25 50 49 72 73c-5 42 -20 68 -44 68c-3 0 -8 -2 -14 -5c-7 -3 -13 -7 -24 -7c-5 0 -9 2 -9 7
c0 3 1 6 4 9v-1c18 23 61 94 61 121c0 2 -2 4 -3 5c-21 -1 -43 -32 -67 -68c-49 -73 -125 -179 -267 -179c-72 0 -148 23 -220 46c-73 23 -148 46 -219 46c-43 0 -87 -9 -130 -32l1 1c-2 -2 -4 -2 -6 -2c-5 0 -9 5 -9 10c0 2 2 6 5 8c45 24 94 34 141 34
c74 0 146 -23 219 -46c72 -23 145 -45 216 -45c140 -1 205 96 252 167c30 44 52 79 84 79c17 0 31 -8 31 -28c0 -32 -28 -70 -52 -100h10c32 0 53 -23 63 -63c25 29 45 56 62 88zM728 -457c141 0 215 335 215 469v7l-59 -59c-98 -97 -211 -206 -211 -340
c0 -37 12 -77 55 -77z" />
    <glyph glyph-name="z.2" unicode="&#xe050;" horiz-adv-x="211" 
d="M699 -126h4c7 0 10 -5 10 -10c0 -4 -2 -6 -4 -8c-46 -25 -93 -34 -140 -34c-74 0 -148 23 -222 46c-67 21 -132 42 -197 45c-24 -166 -106 -389 -235 -389c-56 0 -75 47 -75 95c0 153 127 309 284 314c0 3 1 6 1 9c2 17 4 42 4 68c0 51 -8 105 -45 105c-3 0 -8 -2 -14 -5
c-7 -3 -13 -7 -24 -7c-4 0 -8 2 -8 7c0 4 8 14 17 30c19 29 47 75 48 97c0 3 -2 6 -4 7c-23 -2 -48 -43 -66 -72c-11 -18 -21 -35 -28 -35c-5 0 -9 4 -9 13c15 30 63 113 103 113c18 0 32 -8 32 -28c0 -30 -31 -71 -53 -100l-7 -9l-3 6c1 0 1 1 2 1c7 2 13 3 20 3
c54 -1 66 -70 66 -131c0 -27 -2 -57 -4 -73c63 -5 134 -25 198 -45c73 -23 146 -45 217 -45c45 0 87 8 132 32zM-86 -457c113 0 184 214 207 370c-144 -7 -262 -156 -262 -294c0 -37 13 -76 55 -76z" />
    <glyph glyph-name="z.3" unicode="&#xe051;" horiz-adv-x="953" 
d="M943 206h1l3 1c6 0 10 -5 10 -10c0 -4 -1 -8 -5 -9c-84 -44 -152 -58 -214 -58c-54 0 -104 12 -153 24c-48 12 -96 23 -144 23c-77 0 -167 -31 -285 -134c1 -11 2 -23 2 -36c0 -157 -87 -483 -242 -483c-56 0 -75 47 -75 95c0 143 114 253 216 355c26 25 50 49 72 73
c-5 42 -19 68 -43 68c-4 0 -9 -2 -15 -5c-7 -3 -15 -7 -24 -7c-4 0 -8 2 -8 7c0 4 8 14 17 30c19 29 47 75 48 97c0 3 -2 6 -4 7c-23 -2 -48 -43 -66 -72c-11 -18 -21 -35 -28 -35c-5 0 -9 4 -9 13c15 30 63 113 103 113c18 0 32 -8 32 -28c0 -30 -31 -71 -53 -100l-7 -9
l-3 6c1 0 1 1 2 1c6 2 13 3 19 3c36 0 54 -34 63 -70c117 102 207 131 286 131c51 0 99 -12 147 -24c49 -12 99 -24 152 -24c57 0 124 14 205 57zM-85 -457c141 0 216 339 216 471v5l-58 -57c-99 -97 -213 -210 -213 -343c0 -37 13 -76 55 -76z" />
    <glyph glyph-name="agrave" unicode="&#xe0;" horiz-adv-x="256" 
d="M101 286h2c3 -2 6 -5 6 -9c0 -5 -4 -10 -8 -10c-18 0 -35 25 -35 39c0 8 7 14 14 14c11 0 13 -10 15 -20c1 -6 2 -13 6 -14zM261 166l1 1c2 2 5 2 7 2c7 0 10 -4 10 -13c-27 -52 -87 -160 -145 -160c-43 0 -56 40 -56 88c0 16 -2 4 0 20c-15 -33 -31 -56 -52 -56
c-24 0 -34 27 -34 59c0 57 31 134 72 134c11 0 21 -6 32 -21v1c2 4 7 8 11 8c8 0 16 -6 16 -13c0 -13 -4 -33 -8 -53c-5 -27 -11 -60 -11 -85c0 -36 7 -63 30 -63c45 0 102 105 127 151zM26 68c24 0 49 76 63 126c-9 20 -18 28 -24 28c-27 0 -47 -80 -47 -126
c0 -17 2 -28 8 -28z" />
    <glyph glyph-name="aacute" unicode="&#xe1;" horiz-adv-x="256" 
d="M94 319c7 0 14 -6 14 -14c-1 -15 -18 -38 -35 -39c-4 0 -8 3 -8 10c0 5 2 8 4 9c8 1 9 8 10 14c1 10 2 20 15 20zM261 166l1 1c2 2 5 2 7 2c7 0 10 -4 10 -13c-27 -52 -87 -160 -145 -160c-43 0 -56 40 -56 88c0 16 -2 4 0 20c-15 -33 -31 -56 -52 -56
c-24 0 -34 27 -34 59c0 57 31 134 72 134c11 0 21 -6 32 -21v1c2 4 7 8 11 8c8 0 16 -6 16 -13c0 -13 -4 -33 -8 -53c-5 -27 -11 -60 -11 -85c0 -36 7 -63 30 -63c45 0 102 105 127 151zM26 68c24 0 49 76 63 126c-9 20 -18 28 -24 28c-27 0 -47 -80 -47 -126
c0 -17 2 -28 8 -28z" />
    <glyph glyph-name="acircumflex" unicode="&#xe2;" horiz-adv-x="256" 
d="M78 313h1c15 -2 31 -25 31 -41c0 -7 -5 -15 -12 -15c-15 -1 -16 12 -16 23c0 7 0 13 -5 13c-6 0 -8 -7 -9 -13c-3 -10 -5 -18 -16 -18c-7 0 -13 7 -13 15c2 16 23 36 39 36zM261 166l1 1c2 2 5 2 7 2c7 0 10 -4 10 -13c-27 -52 -87 -160 -145 -160c-43 0 -56 40 -56 88
c0 16 -2 4 0 20c-15 -33 -31 -56 -52 -56c-24 0 -34 27 -34 59c0 57 31 134 72 134c11 0 21 -6 32 -21v1c2 4 7 8 11 8c8 0 16 -6 16 -13c0 -13 -4 -33 -8 -53c-5 -27 -11 -60 -11 -85c0 -36 7 -63 30 -63c45 0 102 105 127 151zM26 68c24 0 49 76 63 126
c-9 20 -18 28 -24 28c-27 0 -47 -80 -47 -126c0 -17 2 -28 8 -28z" />
    <glyph glyph-name="atilde" unicode="&#xe3;" horiz-adv-x="256" 
d="M135 290l-1 -1c2 2 4 2 6 2c5 0 9 -5 9 -10c0 -15 -36 -20 -39 -20c-11 0 -20 4 -27 7s-13 6 -18 6c-3 0 -8 -2 -14 -6c-1 -1 0 -1 -7 -1c-5 0 -9 5 -9 9c0 16 37 22 38 22c11 0 19 -4 26 -7s14 -6 20 -6c3 0 9 2 16 5zM261 166l1 1c2 2 5 2 7 2c7 0 10 -4 10 -13
c-27 -52 -87 -160 -145 -160c-43 0 -56 40 -56 88c0 16 -2 4 0 20c-15 -33 -31 -56 -52 -56c-24 0 -34 27 -34 59c0 57 31 134 72 134c11 0 21 -6 32 -21v1c2 4 7 8 11 8c8 0 16 -6 16 -13c0 -13 -4 -33 -8 -53c-5 -27 -11 -60 -11 -85c0 -36 7 -63 30 -63
c45 0 102 105 127 151zM26 68c24 0 49 76 63 126c-9 20 -18 28 -24 28c-27 0 -47 -80 -47 -126c0 -17 2 -28 8 -28z" />
    <glyph glyph-name="adieresis" unicode="&#xe4;" horiz-adv-x="256" 
d="M67 277h1c7 -1 12 -7 12 -14s-4 -13 -13 -13c-7 0 -14 4 -14 13c0 8 7 14 14 14zM100 277h1c5 -1 12 -6 12 -13s-4 -14 -13 -14c-7 0 -14 4 -14 13c0 8 7 14 14 14zM261 166l1 1c2 2 5 2 7 2c7 0 10 -4 10 -13c-27 -52 -87 -160 -145 -160c-43 0 -56 40 -56 88
c0 16 -2 4 0 20c-15 -33 -31 -56 -52 -56c-24 0 -34 27 -34 59c0 57 31 134 72 134c11 0 21 -6 32 -21v1c2 4 7 8 11 8c8 0 16 -6 16 -13c0 -13 -4 -33 -8 -53c-5 -27 -11 -60 -11 -85c0 -36 7 -63 30 -63c45 0 102 105 127 151zM26 68c24 0 49 76 63 126
c-9 20 -18 28 -24 28c-27 0 -47 -80 -47 -126c0 -17 2 -28 8 -28z" />
    <glyph glyph-name="aring" unicode="&#xe5;" horiz-adv-x="256" 
d="M66 279v-2c1 12 10 18 18 18s15 -5 15 -16c0 -17 -10 -25 -19 -25c-8 0 -15 7 -15 17c0 3 0 6 1 8zM85 276v1c1 2 1 3 1 4v2c-1 0 -6 -4 -6 -12c0 -3 0 -4 1 -4s3 3 4 9zM261 166l1 1c2 2 5 2 7 2c7 0 10 -4 10 -13c-27 -52 -87 -160 -145 -160c-43 0 -56 40 -56 88
c0 16 -2 4 0 20c-15 -33 -31 -56 -52 -56c-24 0 -34 27 -34 59c0 57 31 134 72 134c11 0 21 -6 32 -21v1c2 4 7 8 11 8c8 0 16 -6 16 -13c0 -13 -4 -33 -8 -53c-5 -27 -11 -60 -11 -85c0 -36 7 -63 30 -63c45 0 102 105 127 151zM26 68c24 0 49 76 63 126
c-9 20 -18 28 -24 28c-27 0 -47 -80 -47 -126c0 -17 2 -28 8 -28z" />
    <glyph glyph-name="ae" unicode="&#xe6;" horiz-adv-x="472" 
d="M475 161l1 1c1 1 5 3 8 3c5 0 9 -6 9 -13c-29 -56 -97 -119 -165 -119c-50 0 -75 28 -79 72c-31 -52 -72 -109 -115 -109s-56 40 -56 88c0 16 -2 4 0 20c-15 -33 -31 -56 -52 -56c-24 0 -34 27 -34 59c0 57 31 134 72 134c11 0 21 -6 32 -21v1c2 4 7 8 11 8
c8 0 16 -6 16 -13c0 -13 -4 -33 -8 -53c-5 -27 -11 -60 -11 -85c0 -36 7 -63 30 -63c40 0 89 83 117 133v-1c9 50 42 95 81 95c17 0 28 -13 28 -29c0 -40 -48 -58 -81 -67c-2 -10 -2 -22 -2 -31c0 -33 13 -63 51 -63c58 0 121 59 147 109zM26 68c24 0 49 76 63 126
c-9 20 -18 28 -24 28c-27 0 -47 -80 -47 -126c0 -17 2 -28 8 -28zM332 223c-19 0 -37 -25 -47 -55c24 7 56 22 56 45c0 6 -3 10 -9 10z" />
    <glyph glyph-name="egrave" unicode="&#xe8;" horiz-adv-x="216" 
d="M83 286h2c3 -2 6 -5 6 -9c0 -5 -4 -10 -8 -10c-18 0 -35 25 -35 39c0 8 7 14 14 14c11 0 13 -10 15 -20c1 -6 2 -13 6 -14zM219 161l1 1c1 1 5 3 8 3c5 0 9 -6 9 -13c-29 -56 -97 -119 -165 -119c-54 0 -79 35 -79 87c0 58 38 122 83 122c17 0 28 -13 28 -29
c0 -40 -48 -58 -81 -67c-2 -10 -2 -22 -2 -31c0 -33 13 -63 51 -63c58 0 121 59 147 109zM76 223c-19 0 -37 -25 -47 -55c24 7 56 22 56 45c0 6 -3 10 -9 10z" />
    <glyph glyph-name="igrave" unicode="&#xec;" horiz-adv-x="168" 
d="M31 215h2c3 -2 6 -5 6 -9c0 -5 -4 -10 -8 -10c-18 0 -35 25 -35 39c0 8 7 14 14 14c11 0 13 -10 15 -20c1 -6 2 -13 6 -14zM173 166l1 1c1 1 3 3 7 3c5 0 10 -6 10 -13c-23 -45 -88 -144 -144 -144c-42 0 -52 52 -52 99v5c0 28 0 60 17 60c7 0 14 -5 14 -12
c0 -6 -1 -15 -2 -25c-1 -13 -3 -28 -3 -43c0 -32 5 -65 25 -65c46 0 106 96 127 134z" />
    <glyph glyph-name="ograve" unicode="&#xf2;" horiz-adv-x="218" 
d="M90 286h2c3 -2 6 -5 6 -9c0 -5 -4 -10 -8 -10c-18 0 -35 25 -35 39c0 8 7 14 14 14c11 0 13 -10 15 -20c1 -6 2 -13 6 -14zM219 159c2 4 5 4 9 4c5 0 9 -4 9 -13c-21 -42 -60 -79 -111 -80c-5 0 -8 0 -12 1c-14 -24 -35 -41 -64 -41c-43 0 -65 37 -65 76
c0 18 13 74 40 74c5 0 9 -7 9 -15c-14 -13 -21 -36 -21 -58c0 -29 12 -58 38 -58c19 0 30 13 38 29c-38 18 -59 66 -59 105c0 30 13 55 43 55c48 0 59 -56 59 -92c0 -19 -3 -39 -9 -56h3c42 0 75 33 93 69zM100 95l-5 -3c7 18 10 39 10 57c0 22 -6 69 -34 69
c-14 0 -22 -14 -22 -35c0 -32 18 -75 51 -88z" />
    <glyph glyph-name="Ograve" unicode="&#xd2;" 
d="M226 730h2c3 -2 6 -5 6 -9c0 -5 -4 -10 -8 -10c-18 0 -35 25 -35 39c0 8 7 14 14 14c11 0 13 -10 15 -20c1 -6 2 -13 6 -14zM190 664c120 0 171 -124 171 -265c0 -115 -54 -391 -219 -391c-108 0 -146 119 -146 209c0 67 19 147 50 213c-2 13 -2 28 -2 43
c0 91 40 190 146 191zM141 27c144 0 192 261 192 372c0 130 -42 245 -143 245c-93 0 -128 -88 -128 -170c0 -9 -1 -6 0 -15c24 41 56 77 94 101c5 0 10 -5 10 -10v-5c-41 -26 -75 -74 -98 -124c13 -74 55 -144 122 -183c1 -1 2 -4 2 -7c0 -5 -3 -9 -12 -9
c-62 38 -106 99 -125 167c-21 -57 -31 -115 -31 -170c0 -76 20 -191 117 -192z" />
    <glyph glyph-name="Ugrave" unicode="&#xd9;" horiz-adv-x="401" 
d="M211 715h2c3 -2 6 -5 6 -9c0 -5 -4 -10 -8 -10c-18 0 -35 25 -35 39c0 8 7 14 14 14c11 0 13 -10 15 -20c1 -6 2 -13 6 -14zM338 644c1 7 9 10 14 10c7 0 13 -5 13 -13c-15 -114 -32 -228 -49 -342s-34 -228 -49 -342c-2 -6 -5 -8 -10 -8s-9 4 -9 11l52 402
c-40 -144 -105 -286 -206 -286c-76 0 -98 86 -98 189c0 82 13 174 23 244c6 40 10 70 11 88c0 4 5 8 10 8s8 -2 10 -7c0 -19 -3 -54 -8 -95c-8 -68 -18 -159 -18 -236c0 -94 15 -172 70 -172c143 0 207 339 236 503c2 15 6 31 8 46z" />
    <glyph glyph-name="ugrave" unicode="&#xf9;" horiz-adv-x="316" 
d="M101 286h2c3 -2 6 -5 6 -9c0 -5 -4 -10 -8 -10c-18 0 -35 25 -35 39c0 8 7 14 14 14c11 0 13 -10 15 -20c1 -6 2 -13 6 -14zM321 166l1 1c2 2 4 2 6 2c5 0 10 -4 10 -13c-23 -43 -85 -160 -145 -160c-40 0 -52 44 -52 95c0 21 -2 15 1 36c-23 -50 -54 -98 -91 -98
c-43 0 -53 52 -53 100v4c0 21 0 46 15 46c7 0 13 -6 14 -17c-2 -15 -4 -35 -4 -53c0 -32 5 -61 28 -61c46 0 93 135 106 181c2 4 8 8 13 8c7 0 14 -3 14 -10c0 -10 -3 -27 -7 -46c-6 -31 -14 -71 -14 -104c0 -35 7 -62 30 -62c47 0 107 112 128 151z" />
    <glyph glyph-name="Agrave" unicode="&#xc0;" horiz-adv-x="697" 
d="M448 951h2c3 -2 6 -5 6 -9c0 -5 -4 -10 -8 -10c-18 0 -35 25 -35 39c0 8 7 14 14 14c11 0 13 -10 15 -20c1 -6 2 -13 6 -14zM698 158l1 1c1 1 5 3 8 3c5 0 9 -4 9 -14c-31 -59 -90 -135 -165 -135c-86 0 -104 152 -107 334c-31 -11 -67 -24 -103 -40
c-35 -108 -135 -419 -274 -419c-49 0 -71 46 -71 89c0 156 193 278 320 339l34 104c33 100 64 190 93 242c-2 61 -7 175 -37 222v-1c-2 2 -2 4 -2 6c0 5 5 9 10 9c2 0 5 0 6 -1c39 -62 43 -205 43 -357v-110v-56c1 0 2 1 3 1h-1l21 6c7 0 11 -3 11 -10c0 -4 -1 -7 -3 -8
l-30 -9c2 -173 15 -321 86 -321c66 0 120 71 148 125zM65 -93c115 0 210 289 242 383c-118 -59 -292 -173 -292 -312c0 -30 15 -71 50 -71zM347 323l-6 5c37 17 71 29 103 40v59v111c0 34 1 48 0 80c-18 -46 -36 -102 -56 -166c-13 -41 -26 -85 -41 -129z" />
    <glyph glyph-name="Egrave" unicode="&#xc8;" horiz-adv-x="444" 
d="M297 720h2c3 -2 6 -5 6 -9c0 -5 -4 -10 -8 -10c-18 0 -35 25 -35 39c0 8 7 14 14 14c11 0 13 -10 15 -20c1 -6 2 -13 6 -14zM446 160l1 1c2 2 5 2 7 2c5 0 10 -4 10 -13c-61 -115 -165 -232 -307 -232c-114 0 -161 71 -161 160c0 95 51 208 136 274
c-47 22 -68 66 -68 114c0 121 115 187 225 187c20 0 104 -11 104 -33c0 -7 -4 -10 -13 -10c-29 16 -61 24 -93 24c-96 0 -195 -62 -195 -166c0 -42 19 -81 61 -101c39 26 82 41 128 41c26 -2 39 -8 39 -26c0 -34 -69 -48 -107 -48c-20 0 -40 2 -58 8
c-80 -61 -131 -171 -131 -263c0 -78 37 -142 132 -142c133 0 231 112 290 223zM281 388c-38 0 -72 -10 -104 -30c11 -3 23 -5 36 -5c34 0 88 13 88 29c0 4 -7 6 -20 6z" />
    <glyph glyph-name="Igrave" unicode="&#xcc;" horiz-adv-x="264" 
d="M229 713h2c3 -2 6 -5 6 -9c0 -5 -4 -10 -8 -10c-18 0 -35 25 -35 39c0 8 7 14 14 14c11 0 13 -10 15 -20c1 -6 2 -13 6 -14zM244 367h1l3 1c7 0 9 -5 9 -10c0 -8 -16 -16 -32 -25c-7 -4 -15 -7 -20 -12c-27 -165 -78 -343 -163 -343c-36 0 -46 36 -46 65
c0 115 92 217 181 281c12 88 22 180 29 245c2 19 3 20 5 41l-4 -10c-15 -44 -35 -101 -73 -101c-5 0 -9 5 -9 10s3 8 8 10c27 0 42 43 55 82c12 33 19 62 37 62c7 0 9 -7 9 -10c-1 -49 -8 -176 -26 -308c14 9 29 19 36 22zM42 -2c65 0 105 146 131 300
c-76 -59 -158 -150 -158 -250c0 -20 3 -50 27 -50z" />
    <glyph glyph-name="eacute" unicode="&#xe9;" horiz-adv-x="216" 
d="M94 319c7 0 14 -6 14 -14c-1 -15 -18 -38 -35 -39c-4 0 -8 3 -8 10c0 5 2 8 4 9c8 1 9 8 10 14c1 10 2 20 15 20zM219 161l1 1c1 1 5 3 8 3c5 0 9 -6 9 -13c-29 -56 -97 -119 -165 -119c-54 0 -79 35 -79 87c0 58 38 122 83 122c17 0 28 -13 28 -29
c0 -40 -48 -58 -81 -67c-2 -10 -2 -22 -2 -31c0 -33 13 -63 51 -63c58 0 121 59 147 109zM76 223c-19 0 -37 -25 -47 -55c24 7 56 22 56 45c0 6 -3 10 -9 10z" />
    <glyph glyph-name="iacute" unicode="&#xed;" horiz-adv-x="168" 
d="M173 166l1 1c1 1 3 3 7 3c5 0 10 -6 10 -13c-23 -45 -88 -144 -144 -144c-42 0 -52 52 -52 99v5c0 28 0 60 17 60c7 0 14 -5 14 -12c0 -6 -1 -15 -2 -25c-1 -13 -3 -28 -3 -43c0 -32 5 -65 25 -65c46 0 106 96 127 134zM27 249c7 0 14 -6 14 -14c-1 -15 -18 -38 -35 -39
c-4 0 -8 3 -8 10c0 5 2 8 4 9c8 1 9 8 10 14c1 10 2 20 15 20z" />
    <glyph glyph-name="oacute" unicode="&#xf3;" horiz-adv-x="218" 
d="M94 319c7 0 14 -6 14 -14c-1 -15 -18 -38 -35 -39c-4 0 -8 3 -8 10c0 5 2 8 4 9c8 1 9 8 10 14c1 10 2 20 15 20zM219 159c2 4 5 4 9 4c5 0 9 -4 9 -13c-21 -42 -60 -79 -111 -80c-5 0 -8 0 -12 1c-14 -24 -35 -41 -64 -41c-43 0 -65 37 -65 76c0 18 13 74 40 74
c5 0 9 -7 9 -15c-14 -13 -21 -36 -21 -58c0 -29 12 -58 38 -58c19 0 30 13 38 29c-38 18 -59 66 -59 105c0 30 13 55 43 55c48 0 59 -56 59 -92c0 -19 -3 -39 -9 -56h3c42 0 75 33 93 69zM100 95l-5 -3c7 18 10 39 10 57c0 22 -6 69 -34 69c-14 0 -22 -14 -22 -35
c0 -32 18 -75 51 -88z" />
    <glyph glyph-name="uacute" unicode="&#xfa;" horiz-adv-x="316" 
d="M94 319c7 0 14 -6 14 -14c-1 -15 -18 -38 -35 -39c-4 0 -8 3 -8 10c0 5 2 8 4 9c8 1 9 8 10 14c1 10 2 20 15 20zM321 166l1 1c2 2 4 2 6 2c5 0 10 -4 10 -13c-23 -43 -85 -160 -145 -160c-40 0 -52 44 -52 95c0 21 -2 15 1 36c-23 -50 -54 -98 -91 -98
c-43 0 -53 52 -53 100v4c0 21 0 46 15 46c7 0 13 -6 14 -17c-2 -15 -4 -35 -4 -53c0 -32 5 -61 28 -61c46 0 93 135 106 181c2 4 8 8 13 8c7 0 14 -3 14 -10c0 -10 -3 -27 -7 -46c-6 -31 -14 -71 -14 -104c0 -35 7 -62 30 -62c47 0 107 112 128 151z" />
    <glyph glyph-name="yacute" unicode="&#xfd;" horiz-adv-x="296" 
d="M97 281c7 0 14 -6 14 -14c-1 -15 -18 -38 -35 -39c-4 0 -8 3 -8 10c0 5 2 8 4 9c8 1 9 8 10 14c1 10 2 20 15 20zM298 160l1 1c1 1 5 3 7 3c5 0 10 -4 10 -13c-29 -59 -86 -104 -151 -150c-3 -122 -15 -491 -197 -491c-69 0 -105 67 -105 127c0 171 132 266 254 353
l20 15c1 51 1 77 1 114c-20 -42 -54 -91 -90 -91c-40 0 -50 43 -50 85c0 27 0 67 20 67c6 0 11 -4 11 -13c0 -7 -1 -18 -2 -27c-1 -11 -3 -26 -3 -37c0 -29 5 -56 25 -56c29 0 56 56 75 94c11 21 19 38 27 38c6 0 14 -3 15 -10c-1 -19 -1 -43 -1 -68v-77
c57 41 106 84 133 136zM-34 -470c155 0 168 339 171 451c-122 -86 -255 -174 -255 -341c0 -50 28 -109 84 -110z" />
    <glyph glyph-name="Aacute" unicode="&#xc1;" horiz-adv-x="697" 
d="M450 978c7 0 14 -6 14 -14c-1 -15 -18 -38 -35 -39c-4 0 -8 3 -8 10c0 5 2 8 4 9c8 1 9 8 10 14c1 10 2 20 15 20zM698 158l1 1c1 1 5 3 8 3c5 0 9 -4 9 -14c-31 -59 -90 -135 -165 -135c-86 0 -104 152 -107 334c-31 -11 -67 -24 -103 -40c-35 -108 -135 -419 -274 -419
c-49 0 -71 46 -71 89c0 156 193 278 320 339l34 104c33 100 64 190 93 242c-2 61 -7 175 -37 222v-1c-2 2 -2 4 -2 6c0 5 5 9 10 9c2 0 5 0 6 -1c39 -62 43 -205 43 -357v-110v-56c1 0 2 1 3 1h-1l21 6c7 0 11 -3 11 -10c0 -4 -1 -7 -3 -8l-30 -9c2 -173 15 -321 86 -321
c66 0 120 71 148 125zM65 -93c115 0 210 289 242 383c-118 -59 -292 -173 -292 -312c0 -30 15 -71 50 -71zM347 323l-6 5c37 17 71 29 103 40v59v111c0 34 1 48 0 80c-18 -46 -36 -102 -56 -166c-13 -41 -26 -85 -41 -129z" />
    <glyph glyph-name="Eacute" unicode="&#xc9;" horiz-adv-x="444" 
d="M294 759c7 0 14 -6 14 -14c-1 -15 -18 -38 -35 -39c-4 0 -8 3 -8 10c0 5 2 8 4 9c8 1 9 8 10 14c1 10 2 20 15 20zM446 160l1 1c2 2 5 2 7 2c5 0 10 -4 10 -13c-61 -115 -165 -232 -307 -232c-114 0 -161 71 -161 160c0 95 51 208 136 274c-47 22 -68 66 -68 114
c0 121 115 187 225 187c20 0 104 -11 104 -33c0 -7 -4 -10 -13 -10c-29 16 -61 24 -93 24c-96 0 -195 -62 -195 -166c0 -42 19 -81 61 -101c39 26 82 41 128 41c26 -2 39 -8 39 -26c0 -34 -69 -48 -107 -48c-20 0 -40 2 -58 8c-80 -61 -131 -171 -131 -263
c0 -78 37 -142 132 -142c133 0 231 112 290 223zM281 388c-38 0 -72 -10 -104 -30c11 -3 23 -5 36 -5c34 0 88 13 88 29c0 4 -7 6 -20 6z" />
    <glyph glyph-name="Iacute" unicode="&#xcd;" horiz-adv-x="264" 
d="M230 756c7 0 14 -6 14 -14c-1 -15 -18 -38 -35 -39c-4 0 -8 3 -8 10c0 5 2 8 4 9c8 1 9 8 10 14c1 10 2 20 15 20zM244 367h1l3 1c7 0 9 -5 9 -10c0 -8 -16 -16 -32 -25c-7 -4 -15 -7 -20 -12c-27 -165 -78 -343 -163 -343c-36 0 -46 36 -46 65c0 115 92 217 181 281
c12 88 22 180 29 245c2 19 3 20 5 41l-4 -10c-15 -44 -35 -101 -73 -101c-5 0 -9 5 -9 10s3 8 8 10c27 0 42 43 55 82c12 33 19 62 37 62c7 0 9 -7 9 -10c-1 -49 -8 -176 -26 -308c14 9 29 19 36 22zM42 -2c65 0 105 146 131 300c-76 -59 -158 -150 -158 -250
c0 -20 3 -50 27 -50z" />
    <glyph glyph-name="Oacute" unicode="&#xd3;" 
d="M224 749c7 0 14 -6 14 -14c-1 -15 -18 -38 -35 -39c-4 0 -8 3 -8 10c0 5 2 8 4 9c8 1 9 8 10 14c1 10 2 20 15 20zM190 664c120 0 171 -124 171 -265c0 -115 -54 -391 -219 -391c-108 0 -146 119 -146 209c0 67 19 147 50 213c-2 13 -2 28 -2 43c0 91 40 190 146 191z
M141 27c144 0 192 261 192 372c0 130 -42 245 -143 245c-93 0 -128 -88 -128 -170c0 -9 -1 -6 0 -15c24 41 56 77 94 101c5 0 10 -5 10 -10v-5c-41 -26 -75 -74 -98 -124c13 -74 55 -144 122 -183c1 -1 2 -4 2 -7c0 -5 -3 -9 -12 -9c-62 38 -106 99 -125 167
c-21 -57 -31 -115 -31 -170c0 -76 20 -191 117 -192z" />
    <glyph glyph-name="Uacute" unicode="&#xda;" horiz-adv-x="401" 
d="M207 747c7 0 14 -6 14 -14c-1 -15 -18 -38 -35 -39c-4 0 -8 3 -8 10c0 5 2 8 4 9c8 1 9 8 10 14c1 10 2 20 15 20zM338 644c1 7 9 10 14 10c7 0 13 -5 13 -13c-15 -114 -32 -228 -49 -342s-34 -228 -49 -342c-2 -6 -5 -8 -10 -8s-9 4 -9 11l52 402
c-40 -144 -105 -286 -206 -286c-76 0 -98 86 -98 189c0 82 13 174 23 244c6 40 10 70 11 88c0 4 5 8 10 8s8 -2 10 -7c0 -19 -3 -54 -8 -95c-8 -68 -18 -159 -18 -236c0 -94 15 -172 70 -172c143 0 207 339 236 503c2 15 6 31 8 46z" />
    <glyph glyph-name="Yacute" unicode="&#xdd;" horiz-adv-x="467" 
d="M263 702c7 0 14 -6 14 -14c-1 -15 -18 -38 -35 -39c-4 0 -8 3 -8 10c0 5 2 8 4 9c8 1 9 8 10 14c1 10 2 20 15 20zM424 630v1c1 4 5 5 9 5c7 0 10 -6 10 -11c-12 -49 -20 -124 -28 -210c-26 -270 -62 -646 -290 -646c-77 0 -129 58 -129 134c0 7 0 15 10 15
c5 0 9 -4 9 -8v-8c0 -65 42 -113 108 -113c200 0 237 352 266 614l6 50c-36 -137 -105 -354 -251 -354c-96 0 -117 100 -117 177c0 87 33 286 59 286c5 0 9 -3 9 -12c-14 -44 -41 -164 -41 -266c0 -60 9 -166 90 -166c143 0 207 243 250 408c11 41 21 78 30 104z" />
    <glyph glyph-name="ecircumflex" unicode="&#xea;" horiz-adv-x="216" 
d="M78 313h1c15 -2 31 -25 31 -41c0 -7 -5 -15 -12 -15c-15 -1 -16 12 -16 23c0 7 0 13 -5 13c-6 0 -8 -7 -9 -13c-3 -10 -5 -18 -16 -18c-7 0 -13 7 -13 15c2 16 23 36 39 36zM219 161l1 1c1 1 5 3 8 3c5 0 9 -6 9 -13c-29 -56 -97 -119 -165 -119c-54 0 -79 35 -79 87
c0 58 38 122 83 122c17 0 28 -13 28 -29c0 -40 -48 -58 -81 -67c-2 -10 -2 -22 -2 -31c0 -33 13 -63 51 -63c58 0 121 59 147 109zM76 223c-19 0 -37 -25 -47 -55c24 7 56 22 56 45c0 6 -3 10 -9 10z" />
    <glyph glyph-name="icircumflex" unicode="&#xee;" horiz-adv-x="168" 
d="M173 166l1 1c1 1 3 3 7 3c5 0 10 -6 10 -13c-23 -45 -88 -144 -144 -144c-42 0 -52 52 -52 99v5c0 28 0 60 17 60c7 0 14 -5 14 -12c0 -6 -1 -15 -2 -25c-1 -13 -3 -28 -3 -43c0 -32 5 -65 25 -65c46 0 106 96 127 134zM22 264h1c15 -2 31 -25 31 -41
c0 -7 -5 -15 -12 -15c-15 -1 -16 12 -16 23c0 7 0 13 -5 13c-6 0 -8 -7 -9 -13c-3 -10 -5 -18 -16 -18c-7 0 -13 7 -13 15c2 16 23 36 39 36z" />
    <glyph glyph-name="idieresis" unicode="&#xef;" horiz-adv-x="168" 
d="M173 166l1 1c1 1 3 3 7 3c5 0 10 -6 10 -13c-23 -45 -88 -144 -144 -144c-42 0 -52 52 -52 99v5c0 28 0 60 17 60c7 0 14 -5 14 -12c0 -6 -1 -15 -2 -25c-1 -13 -3 -28 -3 -43c0 -32 5 -65 25 -65c46 0 106 96 127 134zM-5 223h1c7 -1 12 -7 12 -14s-4 -13 -13 -13
c-7 0 -14 4 -14 13c0 8 7 14 14 14zM28 223h1c5 -1 12 -6 12 -13s-4 -14 -13 -14c-7 0 -14 4 -14 13c0 8 7 14 14 14z" />
    <glyph glyph-name="ocircumflex" unicode="&#xf4;" horiz-adv-x="218" 
d="M85 319h1c15 -2 31 -25 31 -41c0 -7 -5 -15 -12 -15c-15 -1 -16 12 -16 23c0 7 0 13 -5 13c-6 0 -8 -7 -9 -13c-3 -10 -5 -18 -16 -18c-7 0 -13 7 -13 15c2 16 23 36 39 36zM219 159c2 4 5 4 9 4c5 0 9 -4 9 -13c-21 -42 -60 -79 -111 -80c-5 0 -8 0 -12 1
c-14 -24 -35 -41 -64 -41c-43 0 -65 37 -65 76c0 18 13 74 40 74c5 0 9 -7 9 -15c-14 -13 -21 -36 -21 -58c0 -29 12 -58 38 -58c19 0 30 13 38 29c-38 18 -59 66 -59 105c0 30 13 55 43 55c48 0 59 -56 59 -92c0 -19 -3 -39 -9 -56h3c42 0 75 33 93 69zM100 95l-5 -3
c7 18 10 39 10 57c0 22 -6 69 -34 69c-14 0 -22 -14 -22 -35c0 -32 18 -75 51 -88z" />
    <glyph glyph-name="ucircumflex" unicode="&#xfb;" horiz-adv-x="316" 
d="M108 313h1c15 -2 31 -25 31 -41c0 -7 -5 -15 -12 -15c-15 -1 -16 12 -16 23c0 7 0 13 -5 13c-6 0 -8 -7 -9 -13c-3 -10 -5 -18 -16 -18c-7 0 -13 7 -13 15c2 16 23 36 39 36zM321 166l1 1c2 2 4 2 6 2c5 0 10 -4 10 -13c-23 -43 -85 -160 -145 -160c-40 0 -52 44 -52 95
c0 21 -2 15 1 36c-23 -50 -54 -98 -91 -98c-43 0 -53 52 -53 100v4c0 21 0 46 15 46c7 0 13 -6 14 -17c-2 -15 -4 -35 -4 -53c0 -32 5 -61 28 -61c46 0 93 135 106 181c2 4 8 8 13 8c7 0 14 -3 14 -10c0 -10 -3 -27 -7 -46c-6 -31 -14 -71 -14 -104c0 -35 7 -62 30 -62
c47 0 107 112 128 151z" />
    <glyph glyph-name="Acircumflex" unicode="&#xc2;" horiz-adv-x="697" 
d="M441 980h1c15 -2 31 -25 31 -41c0 -7 -5 -15 -12 -15c-15 -1 -16 12 -16 23c0 7 0 13 -5 13c-6 0 -8 -7 -9 -13c-3 -10 -5 -18 -16 -18c-7 0 -13 7 -13 15c2 16 23 36 39 36zM698 158l1 1c1 1 5 3 8 3c5 0 9 -4 9 -14c-31 -59 -90 -135 -165 -135
c-86 0 -104 152 -107 334c-31 -11 -67 -24 -103 -40c-35 -108 -135 -419 -274 -419c-49 0 -71 46 -71 89c0 156 193 278 320 339l34 104c33 100 64 190 93 242c-2 61 -7 175 -37 222v-1c-2 2 -2 4 -2 6c0 5 5 9 10 9c2 0 5 0 6 -1c39 -62 43 -205 43 -357v-110v-56
c1 0 2 1 3 1h-1l21 6c7 0 11 -3 11 -10c0 -4 -1 -7 -3 -8l-30 -9c2 -173 15 -321 86 -321c66 0 120 71 148 125zM65 -93c115 0 210 289 242 383c-118 -59 -292 -173 -292 -312c0 -30 15 -71 50 -71zM347 323l-6 5c37 17 71 29 103 40v59v111c0 34 1 48 0 80
c-18 -46 -36 -102 -56 -166c-13 -41 -26 -85 -41 -129z" />
    <glyph glyph-name="Ecircumflex" unicode="&#xca;" horiz-adv-x="444" 
d="M274 749h1c15 -2 31 -25 31 -41c0 -7 -5 -15 -12 -15c-15 -1 -16 12 -16 23c0 7 0 13 -5 13c-6 0 -8 -7 -9 -13c-3 -10 -5 -18 -16 -18c-7 0 -13 7 -13 15c2 16 23 36 39 36zM446 160l1 1c2 2 5 2 7 2c5 0 10 -4 10 -13c-61 -115 -165 -232 -307 -232
c-114 0 -161 71 -161 160c0 95 51 208 136 274c-47 22 -68 66 -68 114c0 121 115 187 225 187c20 0 104 -11 104 -33c0 -7 -4 -10 -13 -10c-29 16 -61 24 -93 24c-96 0 -195 -62 -195 -166c0 -42 19 -81 61 -101c39 26 82 41 128 41c26 -2 39 -8 39 -26
c0 -34 -69 -48 -107 -48c-20 0 -40 2 -58 8c-80 -61 -131 -171 -131 -263c0 -78 37 -142 132 -142c133 0 231 112 290 223zM281 388c-38 0 -72 -10 -104 -30c11 -3 23 -5 36 -5c34 0 88 13 88 29c0 4 -7 6 -20 6z" />
    <glyph glyph-name="Icircumflex" unicode="&#xce;" horiz-adv-x="264" 
d="M229 749h1c15 -2 31 -25 31 -41c0 -7 -5 -15 -12 -15c-15 -1 -16 12 -16 23c0 7 0 13 -5 13c-6 0 -8 -7 -9 -13c-3 -10 -5 -18 -16 -18c-7 0 -13 7 -13 15c2 16 23 36 39 36zM244 367h1l3 1c7 0 9 -5 9 -10c0 -8 -16 -16 -32 -25c-7 -4 -15 -7 -20 -12
c-27 -165 -78 -343 -163 -343c-36 0 -46 36 -46 65c0 115 92 217 181 281c12 88 22 180 29 245c2 19 3 20 5 41l-4 -10c-15 -44 -35 -101 -73 -101c-5 0 -9 5 -9 10s3 8 8 10c27 0 42 43 55 82c12 33 19 62 37 62c7 0 9 -7 9 -10c-1 -49 -8 -176 -26 -308c14 9 29 19 36 22z
M42 -2c65 0 105 146 131 300c-76 -59 -158 -150 -158 -250c0 -20 3 -50 27 -50z" />
    <glyph glyph-name="Ocircumflex" unicode="&#xd4;" 
d="M210 756h1c15 -2 31 -25 31 -41c0 -7 -5 -15 -12 -15c-15 -1 -16 12 -16 23c0 7 0 13 -5 13c-6 0 -8 -7 -9 -13c-3 -10 -5 -18 -16 -18c-7 0 -13 7 -13 15c2 16 23 36 39 36zM190 664c120 0 171 -124 171 -265c0 -115 -54 -391 -219 -391c-108 0 -146 119 -146 209
c0 67 19 147 50 213c-2 13 -2 28 -2 43c0 91 40 190 146 191zM141 27c144 0 192 261 192 372c0 130 -42 245 -143 245c-93 0 -128 -88 -128 -170c0 -9 -1 -6 0 -15c24 41 56 77 94 101c5 0 10 -5 10 -10v-5c-41 -26 -75 -74 -98 -124c13 -74 55 -144 122 -183
c1 -1 2 -4 2 -7c0 -5 -3 -9 -12 -9c-62 38 -106 99 -125 167c-21 -57 -31 -115 -31 -170c0 -76 20 -191 117 -192z" />
    <glyph glyph-name="Ucircumflex" unicode="&#xdb;" horiz-adv-x="401" 
d="M210 742h1c15 -2 31 -25 31 -41c0 -7 -5 -15 -12 -15c-15 -1 -16 12 -16 23c0 7 0 13 -5 13c-6 0 -8 -7 -9 -13c-3 -10 -5 -18 -16 -18c-7 0 -13 7 -13 15c2 16 23 36 39 36zM338 644c1 7 9 10 14 10c7 0 13 -5 13 -13c-15 -114 -32 -228 -49 -342s-34 -228 -49 -342
c-2 -6 -5 -8 -10 -8s-9 4 -9 11l52 402c-40 -144 -105 -286 -206 -286c-76 0 -98 86 -98 189c0 82 13 174 23 244c6 40 10 70 11 88c0 4 5 8 10 8s8 -2 10 -7c0 -19 -3 -54 -8 -95c-8 -68 -18 -159 -18 -236c0 -94 15 -172 70 -172c143 0 207 339 236 503c2 15 6 31 8 46z
" />
    <glyph glyph-name="edieresis" unicode="&#xeb;" horiz-adv-x="216" 
d="M67 277h1c7 -1 12 -7 12 -14s-4 -13 -13 -13c-7 0 -14 4 -14 13c0 8 7 14 14 14zM100 277h1c5 -1 12 -6 12 -13s-4 -14 -13 -14c-7 0 -14 4 -14 13c0 8 7 14 14 14zM219 161l1 1c1 1 5 3 8 3c5 0 9 -6 9 -13c-29 -56 -97 -119 -165 -119c-54 0 -79 35 -79 87
c0 58 38 122 83 122c17 0 28 -13 28 -29c0 -40 -48 -58 -81 -67c-2 -10 -2 -22 -2 -31c0 -33 13 -63 51 -63c58 0 121 59 147 109zM76 223c-19 0 -37 -25 -47 -55c24 7 56 22 56 45c0 6 -3 10 -9 10z" />
    <glyph glyph-name="odieresis" unicode="&#xf6;" horiz-adv-x="218" 
d="M67 277h1c7 -1 12 -7 12 -14s-4 -13 -13 -13c-7 0 -14 4 -14 13c0 8 7 14 14 14zM100 277h1c5 -1 12 -6 12 -13s-4 -14 -13 -14c-7 0 -14 4 -14 13c0 8 7 14 14 14zM219 159c2 4 5 4 9 4c5 0 9 -4 9 -13c-21 -42 -60 -79 -111 -80c-5 0 -8 0 -12 1
c-14 -24 -35 -41 -64 -41c-43 0 -65 37 -65 76c0 18 13 74 40 74c5 0 9 -7 9 -15c-14 -13 -21 -36 -21 -58c0 -29 12 -58 38 -58c19 0 30 13 38 29c-38 18 -59 66 -59 105c0 30 13 55 43 55c48 0 59 -56 59 -92c0 -19 -3 -39 -9 -56h3c42 0 75 33 93 69zM100 95l-5 -3
c7 18 10 39 10 57c0 22 -6 69 -34 69c-14 0 -22 -14 -22 -35c0 -32 18 -75 51 -88z" />
    <glyph glyph-name="udieresis" unicode="&#xfc;" horiz-adv-x="316" 
d="M67 277h1c7 -1 12 -7 12 -14s-4 -13 -13 -13c-7 0 -14 4 -14 13c0 8 7 14 14 14zM100 277h1c5 -1 12 -6 12 -13s-4 -14 -13 -14c-7 0 -14 4 -14 13c0 8 7 14 14 14zM321 166l1 1c2 2 4 2 6 2c5 0 10 -4 10 -13c-23 -43 -85 -160 -145 -160c-40 0 -52 44 -52 95
c0 21 -2 15 1 36c-23 -50 -54 -98 -91 -98c-43 0 -53 52 -53 100v4c0 21 0 46 15 46c7 0 13 -6 14 -17c-2 -15 -4 -35 -4 -53c0 -32 5 -61 28 -61c46 0 93 135 106 181c2 4 8 8 13 8c7 0 14 -3 14 -10c0 -10 -3 -27 -7 -46c-6 -31 -14 -71 -14 -104c0 -35 7 -62 30 -62
c47 0 107 112 128 151z" />
    <glyph glyph-name="ydieresis" unicode="&#xff;" horiz-adv-x="296" 
d="M67 245h1c7 -1 12 -7 12 -14s-4 -13 -13 -13c-7 0 -14 4 -14 13c0 8 7 14 14 14zM100 245h1c5 -1 12 -6 12 -13s-4 -14 -13 -14c-7 0 -14 4 -14 13c0 8 7 14 14 14zM298 160l1 1c1 1 5 3 7 3c5 0 10 -4 10 -13c-29 -59 -86 -104 -151 -150c-3 -122 -15 -491 -197 -491
c-69 0 -105 67 -105 127c0 171 132 266 254 353l20 15c1 51 1 77 1 114c-20 -42 -54 -91 -90 -91c-40 0 -50 43 -50 85c0 27 0 67 20 67c6 0 11 -4 11 -13c0 -7 -1 -18 -2 -27c-1 -11 -3 -26 -3 -37c0 -29 5 -56 25 -56c29 0 56 56 75 94c11 21 19 38 27 38
c6 0 14 -3 15 -10c-1 -19 -1 -43 -1 -68v-77c57 41 106 84 133 136zM-34 -470c155 0 168 339 171 451c-122 -86 -255 -174 -255 -341c0 -50 28 -109 84 -110z" />
    <glyph glyph-name="Adieresis" unicode="&#xc4;" horiz-adv-x="697" 
d="M413 964h1c7 -1 12 -7 12 -14s-4 -13 -13 -13c-7 0 -14 4 -14 13c0 8 7 14 14 14zM446 964h1c5 -1 12 -6 12 -13s-4 -14 -13 -14c-7 0 -14 4 -14 13c0 8 7 14 14 14zM698 158l1 1c1 1 5 3 8 3c5 0 9 -4 9 -14c-31 -59 -90 -135 -165 -135c-86 0 -104 152 -107 334
c-31 -11 -67 -24 -103 -40c-35 -108 -135 -419 -274 -419c-49 0 -71 46 -71 89c0 156 193 278 320 339l34 104c33 100 64 190 93 242c-2 61 -7 175 -37 222v-1c-2 2 -2 4 -2 6c0 5 5 9 10 9c2 0 5 0 6 -1c39 -62 43 -205 43 -357v-110v-56c1 0 2 1 3 1h-1l21 6
c7 0 11 -3 11 -10c0 -4 -1 -7 -3 -8l-30 -9c2 -173 15 -321 86 -321c66 0 120 71 148 125zM65 -93c115 0 210 289 242 383c-118 -59 -292 -173 -292 -312c0 -30 15 -71 50 -71zM347 323l-6 5c37 17 71 29 103 40v59v111c0 34 1 48 0 80c-18 -46 -36 -102 -56 -166
c-13 -41 -26 -85 -41 -129z" />
    <glyph glyph-name="Edieresis" unicode="&#xcb;" horiz-adv-x="444" 
d="M265 723h1c7 -1 12 -7 12 -14s-4 -13 -13 -13c-7 0 -14 4 -14 13c0 8 7 14 14 14zM298 723h1c5 -1 12 -6 12 -13s-4 -14 -13 -14c-7 0 -14 4 -14 13c0 8 7 14 14 14zM446 160l1 1c2 2 5 2 7 2c5 0 10 -4 10 -13c-61 -115 -165 -232 -307 -232c-114 0 -161 71 -161 160
c0 95 51 208 136 274c-47 22 -68 66 -68 114c0 121 115 187 225 187c20 0 104 -11 104 -33c0 -7 -4 -10 -13 -10c-29 16 -61 24 -93 24c-96 0 -195 -62 -195 -166c0 -42 19 -81 61 -101c39 26 82 41 128 41c26 -2 39 -8 39 -26c0 -34 -69 -48 -107 -48c-20 0 -40 2 -58 8
c-80 -61 -131 -171 -131 -263c0 -78 37 -142 132 -142c133 0 231 112 290 223zM281 388c-38 0 -72 -10 -104 -30c11 -3 23 -5 36 -5c34 0 88 13 88 29c0 4 -7 6 -20 6z" />
    <glyph glyph-name="Idieresis" unicode="&#xcf;" horiz-adv-x="264" 
d="M203 721h1c7 -1 12 -7 12 -14s-4 -13 -13 -13c-7 0 -14 4 -14 13c0 8 7 14 14 14zM236 721h1c5 -1 12 -6 12 -13s-4 -14 -13 -14c-7 0 -14 4 -14 13c0 8 7 14 14 14zM244 367h1l3 1c7 0 9 -5 9 -10c0 -8 -16 -16 -32 -25c-7 -4 -15 -7 -20 -12
c-27 -165 -78 -343 -163 -343c-36 0 -46 36 -46 65c0 115 92 217 181 281c12 88 22 180 29 245c2 19 3 20 5 41l-4 -10c-15 -44 -35 -101 -73 -101c-5 0 -9 5 -9 10s3 8 8 10c27 0 42 43 55 82c12 33 19 62 37 62c7 0 9 -7 9 -10c-1 -49 -8 -176 -26 -308c14 9 29 19 36 22z
M42 -2c65 0 105 146 131 300c-76 -59 -158 -150 -158 -250c0 -20 3 -50 27 -50z" />
    <glyph glyph-name="Odieresis" unicode="&#xd6;" 
d="M180 730h1c7 -1 12 -7 12 -14s-4 -13 -13 -13c-7 0 -14 4 -14 13c0 8 7 14 14 14zM213 730h1c5 -1 12 -6 12 -13s-4 -14 -13 -14c-7 0 -14 4 -14 13c0 8 7 14 14 14zM190 664c120 0 171 -124 171 -265c0 -115 -54 -391 -219 -391c-108 0 -146 119 -146 209
c0 67 19 147 50 213c-2 13 -2 28 -2 43c0 91 40 190 146 191zM141 27c144 0 192 261 192 372c0 130 -42 245 -143 245c-93 0 -128 -88 -128 -170c0 -9 -1 -6 0 -15c24 41 56 77 94 101c5 0 10 -5 10 -10v-5c-41 -26 -75 -74 -98 -124c13 -74 55 -144 122 -183
c1 -1 2 -4 2 -7c0 -5 -3 -9 -12 -9c-62 38 -106 99 -125 167c-21 -57 -31 -115 -31 -170c0 -76 20 -191 117 -192z" />
    <glyph glyph-name="Udieresis" unicode="&#xdc;" horiz-adv-x="401" 
d="M187 719h1c7 -1 12 -7 12 -14s-4 -13 -13 -13c-7 0 -14 4 -14 13c0 8 7 14 14 14zM220 719h1c5 -1 12 -6 12 -13s-4 -14 -13 -14c-7 0 -14 4 -14 13c0 8 7 14 14 14zM338 644c1 7 9 10 14 10c7 0 13 -5 13 -13c-15 -114 -32 -228 -49 -342s-34 -228 -49 -342
c-2 -6 -5 -8 -10 -8s-9 4 -9 11l52 402c-40 -144 -105 -286 -206 -286c-76 0 -98 86 -98 189c0 82 13 174 23 244c6 40 10 70 11 88c0 4 5 8 10 8s8 -2 10 -7c0 -19 -3 -54 -8 -95c-8 -68 -18 -159 -18 -236c0 -94 15 -172 70 -172c143 0 207 339 236 503c2 15 6 31 8 46z
" />
    <glyph glyph-name="dieresis" unicode="&#xa8;" horiz-adv-x="156" 
d="M67 700h1c7 -1 12 -7 12 -14s-4 -13 -13 -13c-7 0 -14 4 -14 13c0 8 7 14 14 14zM100 700h1c5 -1 12 -6 12 -13s-4 -14 -13 -14c-7 0 -14 4 -14 13c0 8 7 14 14 14z" />
    <glyph glyph-name="Atilde" unicode="&#xc3;" horiz-adv-x="697" 
d="M468 971l-1 -1c2 2 4 2 6 2c5 0 9 -5 9 -10c0 -15 -36 -20 -39 -20c-11 0 -20 4 -27 7s-13 6 -18 6c-3 0 -8 -2 -14 -6c-1 -1 0 -1 -7 -1c-5 0 -9 5 -9 9c0 16 37 22 38 22c11 0 19 -4 26 -7s14 -6 20 -6c3 0 9 2 16 5zM698 158l1 1c1 1 5 3 8 3c5 0 9 -4 9 -14
c-31 -59 -90 -135 -165 -135c-86 0 -104 152 -107 334c-31 -11 -67 -24 -103 -40c-35 -108 -135 -419 -274 -419c-49 0 -71 46 -71 89c0 156 193 278 320 339l34 104c33 100 64 190 93 242c-2 61 -7 175 -37 222v-1c-2 2 -2 4 -2 6c0 5 5 9 10 9c2 0 5 0 6 -1
c39 -62 43 -205 43 -357v-110v-56c1 0 2 1 3 1h-1l21 6c7 0 11 -3 11 -10c0 -4 -1 -7 -3 -8l-30 -9c2 -173 15 -321 86 -321c66 0 120 71 148 125zM65 -93c115 0 210 289 242 383c-118 -59 -292 -173 -292 -312c0 -30 15 -71 50 -71zM347 323l-6 5c37 17 71 29 103 40v59
v111c0 34 1 48 0 80c-18 -46 -36 -102 -56 -166c-13 -41 -26 -85 -41 -129z" />
    <glyph glyph-name="Ntilde" unicode="&#xd1;" horiz-adv-x="494" 
d="M341 726l-1 -1c2 2 4 2 6 2c5 0 9 -5 9 -10c0 -15 -36 -20 -39 -20c-11 0 -20 4 -27 7s-13 6 -18 6c-3 0 -8 -2 -14 -6c-1 -1 0 -1 -7 -1c-5 0 -9 5 -9 9c0 16 37 22 38 22c11 0 19 -4 26 -7s14 -6 20 -6c3 0 9 2 16 5zM495 159l1 1c2 2 5 2 7 2c7 0 12 -4 10 -14
c-25 -47 -105 -185 -169 -185c-44 0 -48 51 -48 83c-1 62 21 155 43 242c20 81 40 162 40 212c0 21 -2 55 -28 55c-76 0 -180 -210 -208 -270v2c-6 -56 -41 -422 -121 -422c-22 0 -26 24 -26 41c0 61 50 217 117 363v-2c9 82 16 171 22 244c7 89 14 160 21 160
c5 0 9 -3 11 -8c0 -40 -5 -170 -19 -322c38 75 128 234 203 234c46 0 51 -49 51 -83c0 -65 -23 -164 -45 -254c-19 -81 -38 -162 -38 -209c0 -19 3 -46 25 -46c50 0 127 132 151 176zM22 -116c44 -1 76 264 85 333l2 12l8 -2c-59 -134 -102 -269 -102 -321c0 -6 1 -22 7 -22
z" />
    <glyph glyph-name="Otilde" unicode="&#xd5;" 
d="M254 728l-1 -1c2 2 4 2 6 2c5 0 9 -5 9 -10c0 -15 -36 -20 -39 -20c-11 0 -20 4 -27 7s-13 6 -18 6c-3 0 -8 -2 -14 -6c-1 -1 0 -1 -7 -1c-5 0 -9 5 -9 9c0 16 37 22 38 22c11 0 19 -4 26 -7s14 -6 20 -6c3 0 9 2 16 5zM190 664c120 0 171 -124 171 -265
c0 -115 -54 -391 -219 -391c-108 0 -146 119 -146 209c0 67 19 147 50 213c-2 13 -2 28 -2 43c0 91 40 190 146 191zM141 27c144 0 192 261 192 372c0 130 -42 245 -143 245c-93 0 -128 -88 -128 -170c0 -9 -1 -6 0 -15c24 41 56 77 94 101c5 0 10 -5 10 -10v-5
c-41 -26 -75 -74 -98 -124c13 -74 55 -144 122 -183c1 -1 2 -4 2 -7c0 -5 -3 -9 -12 -9c-62 38 -106 99 -125 167c-21 -57 -31 -115 -31 -170c0 -76 20 -191 117 -192z" />
    <glyph glyph-name="ntilde" unicode="&#xf1;" horiz-adv-x="228" 
d="M135 290l-1 -1c2 2 4 2 6 2c5 0 9 -5 9 -10c0 -15 -36 -20 -39 -20c-11 0 -20 4 -27 7s-13 6 -18 6c-3 0 -8 -2 -14 -6c-1 -1 0 -1 -7 -1c-5 0 -9 5 -9 9c0 16 37 22 38 22c11 0 19 -4 26 -7s14 -6 20 -6c3 0 9 2 16 5zM230 161l1 1c2 2 4 2 7 2c5 0 10 -3 10 -12l-6 -10
h1c-24 -46 -80 -147 -124 -147c-22 0 -29 19 -29 47c0 25 6 56 11 85c4 24 8 47 8 61c0 9 -2 15 -5 15c-24 0 -57 -73 -78 -116c-9 -19 -13 -35 -21 -35c-5 0 -9 4 -9 9c0 19 2 39 4 58c2 16 4 32 4 47c0 7 7 10 13 10c7 0 14 -3 14 -12c0 -13 -2 -22 -4 -32l-3 -22l-8 3
c21 48 58 110 88 110c22 0 29 -21 29 -49c0 -24 -5 -58 -10 -85c-4 -23 -8 -45 -8 -59c0 -10 1 -16 5 -16c30 0 85 102 107 141c0 1 2 5 3 6z" />
    <glyph glyph-name="otilde" unicode="&#xf5;" horiz-adv-x="218" 
d="M135 290l-1 -1c2 2 4 2 6 2c5 0 9 -5 9 -10c0 -15 -36 -20 -39 -20c-11 0 -20 4 -27 7s-13 6 -18 6c-3 0 -8 -2 -14 -6c-1 -1 0 -1 -7 -1c-5 0 -9 5 -9 9c0 16 37 22 38 22c11 0 19 -4 26 -7s14 -6 20 -6c3 0 9 2 16 5zM219 159c2 4 5 4 9 4c5 0 9 -4 9 -13
c-21 -42 -60 -79 -111 -80c-5 0 -8 0 -12 1c-14 -24 -35 -41 -64 -41c-43 0 -65 37 -65 76c0 18 13 74 40 74c5 0 9 -7 9 -15c-14 -13 -21 -36 -21 -58c0 -29 12 -58 38 -58c19 0 30 13 38 29c-38 18 -59 66 -59 105c0 30 13 55 43 55c48 0 59 -56 59 -92
c0 -19 -3 -39 -9 -56h3c42 0 75 33 93 69zM100 95l-5 -3c7 18 10 39 10 57c0 22 -6 69 -34 69c-14 0 -22 -14 -22 -35c0 -32 18 -75 51 -88z" />
    <glyph glyph-name="Aring" unicode="&#xc5;" horiz-adv-x="697" 
d="M413 954v-2c1 12 10 18 18 18s15 -5 15 -16c0 -17 -10 -25 -19 -25c-8 0 -15 7 -15 17c0 3 0 6 1 8zM432 951v1c1 2 1 3 1 4v2c-1 0 -6 -4 -6 -12c0 -3 0 -4 1 -4s3 3 4 9zM698 158l1 1c1 1 5 3 8 3c5 0 9 -4 9 -14c-31 -59 -90 -135 -165 -135c-86 0 -104 152 -107 334
c-31 -11 -67 -24 -103 -40c-35 -108 -135 -419 -274 -419c-49 0 -71 46 -71 89c0 156 193 278 320 339l34 104c33 100 64 190 93 242c-2 61 -7 175 -37 222v-1c-2 2 -2 4 -2 6c0 5 5 9 10 9c2 0 5 0 6 -1c39 -62 43 -205 43 -357v-110v-56c1 0 2 1 3 1h-1l21 6
c7 0 11 -3 11 -10c0 -4 -1 -7 -3 -8l-30 -9c2 -173 15 -321 86 -321c66 0 120 71 148 125zM65 -93c115 0 210 289 242 383c-118 -59 -292 -173 -292 -312c0 -30 15 -71 50 -71zM347 323l-6 5c37 17 71 29 103 40v59v111c0 34 1 48 0 80c-18 -46 -36 -102 -56 -166
c-13 -41 -26 -85 -41 -129z" />
    <glyph glyph-name="AE" unicode="&#xc6;" horiz-adv-x="997" 
d="M999 160l1 1c2 2 5 2 7 2c5 0 10 -4 10 -13c-61 -115 -165 -232 -307 -232c-86 0 -133 38 -151 95h-9c-85 1 -103 153 -106 334c-31 -11 -67 -24 -103 -40c-35 -108 -135 -419 -274 -419c-49 0 -71 46 -71 89c0 156 193 278 320 339l34 104c33 100 64 190 93 242
c-2 61 -7 175 -37 222v-1c-2 2 -2 4 -2 6c0 5 5 9 10 9c2 0 5 0 6 -1c39 -62 43 -205 43 -357v-110v-56c1 0 2 1 3 1h-1l21 6c7 0 11 -3 11 -10c0 -4 -1 -7 -3 -8l-30 -9c2 -174 15 -320 86 -321h3c-2 14 -4 29 -4 45c0 95 51 208 136 274c-47 22 -68 66 -68 114
c0 121 115 187 225 187c20 0 104 -11 104 -33c0 -7 -4 -10 -13 -10c-29 16 -61 24 -93 24c-96 0 -195 -62 -195 -166c0 -42 19 -81 61 -101c39 26 82 41 128 41c26 -2 39 -8 39 -26c0 -34 -69 -48 -107 -48c-20 0 -40 2 -58 8c-80 -61 -131 -171 -131 -263
c0 -14 0 -27 3 -41c53 16 94 75 118 120c2 2 6 4 9 4c5 0 9 -4 9 -14c-28 -49 -71 -112 -130 -130c15 -46 56 -81 123 -81c133 0 231 112 290 223zM65 -93c115 0 210 289 242 383c-118 -59 -292 -173 -292 -312c0 -30 15 -71 50 -71zM347 323l-6 5c37 17 71 29 103 40v59
v111c0 34 1 48 0 80c-18 -46 -36 -102 -56 -166c-13 -41 -26 -85 -41 -129zM834 388c-38 0 -72 -10 -104 -30c11 -3 23 -5 36 -5c34 0 88 13 88 29c0 4 -7 6 -20 6z" />
    <glyph glyph-name="Oslash" unicode="&#xd8;" 
d="M190 664h8l2 24c1 4 4 5 9 5c8 0 18 -4 18 -9l-3 -24c94 -22 137 -135 137 -260c0 -116 -54 -391 -219 -392h-6c-1 -4 -2 -13 -2 -16c0 -6 -5 -6 -11 -6s-16 3 -16 9l2 17c-82 22 -113 125 -113 205c0 67 19 147 50 213c-2 13 -2 28 -2 43c0 91 40 190 146 191zM141 27
c144 0 192 261 192 372c0 115 -34 218 -112 241c-13 -117 -32 -257 -51 -390l21 -13c0 -1 1 -3 1 -6c0 -5 -3 -9 -10 -9c-3 0 -10 4 -14 6c-6 -45 -13 -87 -19 -128c-4 -27 -8 -48 -11 -73h3zM145 271l13 97c14 99 27 192 37 276h-6c-92 0 -127 -89 -127 -170
c0 -9 -1 -6 0 -15c24 41 56 77 94 101c5 0 10 -5 10 -10v-5c-41 -26 -75 -74 -98 -124c9 -57 37 -110 77 -150zM112 31l18 133l12 84c-39 36 -73 88 -87 141c-19 -55 -31 -117 -31 -170c0 -68 16 -165 88 -188z" />
    <glyph glyph-name="oslash" unicode="&#xf8;" horiz-adv-x="218" 
d="M219 159c2 4 5 4 9 4c5 0 9 -4 9 -13c-21 -42 -60 -79 -111 -80c-5 0 -8 0 -12 1c-12 -21 -30 -37 -54 -41l-4 -29c0 -6 -4 -6 -9 -6s-12 2 -12 7c0 9 2 21 3 29c-34 8 -53 41 -53 75c0 19 13 74 40 74c5 0 9 -7 9 -15c-14 -13 -21 -36 -21 -59c0 -25 8 -49 27 -56l10 65
c-13 21 -21 47 -21 68c0 28 11 53 38 55l4 27c0 5 4 5 8 5s13 -2 13 -7l-4 -28c33 -13 44 -60 44 -89c0 -19 -3 -39 -9 -56h3c42 0 75 33 93 69zM100 95l-5 -3c7 18 10 39 10 57c0 16 -6 49 -20 63c-1 -3 -1 -7 -1 -10c-3 -27 -5 -41 -12 -87c7 -7 18 -16 28 -20zM54 150
l10 67c-11 -3 -15 -16 -15 -34c0 -11 1 -21 5 -33zM69 91l-7 -40c9 5 22 16 27 27c-7 4 -14 8 -20 13z" />
    <glyph glyph-name="questiondown" unicode="&#xbf;" horiz-adv-x="342" 
d="M191 208c-4 0 -8 4 -8 9c0 11 8 9 16 9c50 0 71 -52 71 -97c0 -67 -44 -133 -121 -133c-68 0 -120 54 -120 122c0 57 30 118 63 185c39 80 82 169 82 264c0 6 -2 13 10 13c3 0 7 -2 9 -4c0 -100 -42 -195 -78 -275c-29 -64 -58 -130 -58 -180c0 -56 34 -105 89 -105
c66 0 105 53 105 114c0 33 -16 78 -56 78h-4zM182 590c-1 0 -2 -1 -3 -1c-6 0 -11 6 -11 12c0 8 1 15 13 15c7 0 13 -7 13 -14c0 -6 -6 -12 -12 -12z" />
    <glyph glyph-name="minus" unicode="&#x2212;" horiz-adv-x="436" 
d="M372 315c6 0 8 -7 8 -14s-3 -13 -8 -14c-28 -1 -65 -1 -92 -1c-69 0 -138 1 -206 2c-5 1 -9 6 -9 12c0 7 3 15 10 15h97c33 0 67 -1 101 -1c33 0 66 0 99 1z" />
    <glyph glyph-name="Scaron" unicode="&#x160;" horiz-adv-x="508" 
d="M510 160l1 1c1 1 5 3 8 3c5 0 9 -4 9 -13c-37 -73 -106 -100 -181 -111c8 -31 13 -62 13 -96c0 -116 -83 -194 -195 -194c-88 0 -169 53 -169 147c0 133 133 145 251 153c23 2 45 2 67 5c-15 47 -41 97 -64 144c-41 82 -81 163 -81 255c0 85 48 173 144 173
c83 0 131 -71 131 -149c0 -9 -9 -108 -30 -108c-5 0 -10 4 -10 13c15 37 21 68 21 95c0 67 -41 130 -112 130c-82 0 -116 -79 -116 -150c0 -87 42 -174 81 -253c23 -46 47 -94 64 -146c72 11 134 34 168 101zM164 -231c105 0 169 73 169 177c0 30 -5 60 -13 90
c-23 -3 -48 -3 -73 -5c-111 -7 -230 -15 -232 -132c0 -84 72 -129 149 -130zM344 679h-1c-16 2 -31 25 -31 41c0 7 4 14 12 14c15 1 15 -10 15 -21c0 -7 1 -14 6 -14s6 6 8 12c2 9 5 19 17 19c7 0 13 -8 13 -15c-2 -16 -23 -36 -39 -36z" />
    <glyph glyph-name="zcaron" unicode="&#x17e;" horiz-adv-x="211" 
d="M102 284h-1c-16 2 -31 25 -31 41c0 7 4 14 12 14c15 1 15 -10 15 -21c0 -7 1 -14 6 -14s6 6 8 12c2 9 5 19 17 19c7 0 13 -8 13 -15c-2 -16 -23 -36 -39 -36zM213 160l1 1c1 1 5 3 7 3c5 0 10 -4 10 -13c-19 -36 -44 -69 -75 -104c2 -11 1 -24 1 -40
c0 -156 -87 -483 -242 -483c-56 0 -75 47 -75 95c0 143 114 253 216 355c26 25 50 49 72 73c-5 42 -19 68 -43 68c-4 0 -9 -2 -15 -5c-7 -3 -15 -7 -24 -7c-4 0 -8 2 -8 7c0 4 8 14 17 30c19 29 47 75 48 97c0 3 -2 6 -4 7c-23 -2 -48 -43 -66 -72c-11 -18 -21 -35 -28 -35
c-5 0 -9 4 -9 13c15 30 63 113 103 113c18 0 32 -8 32 -28c0 -32 -30 -70 -53 -100h11c31 0 52 -23 62 -63c25 29 46 56 62 88zM-86 -457c141 0 216 339 216 471v5l-58 -57c-99 -97 -213 -210 -213 -343c0 -37 13 -76 55 -76z" />
    <glyph glyph-name="Zcaron" unicode="&#x17d;" horiz-adv-x="571" 
d="M458 694h-1c-16 2 -31 25 -31 41c0 7 4 14 12 14c15 1 15 -10 15 -21c0 -7 1 -14 6 -14s6 6 8 12c2 9 5 19 17 19c7 0 13 -8 13 -15c-2 -16 -23 -36 -39 -36zM541 183h3c5 0 9 -5 9 -9c0 -6 -3 -9 -5 -10l-57 -14c-5 -192 -177 -391 -376 -391c-64 0 -119 20 -119 95
c0 193 321 274 467 310c-1 68 -30 115 -91 117c-37 -35 -113 -96 -166 -96c-11 0 -22 4 -22 18c0 24 58 59 78 68c36 17 69 27 98 29c58 60 147 179 147 262c0 45 -29 72 -73 72c-107 0 -196 -96 -266 -168c-2 -1 -4 -1 -7 -1c-5 0 -9 4 -9 8c0 2 1 5 3 8
c72 75 167 172 279 172c54 0 100 -31 100 -91c0 -85 -83 -198 -143 -262c65 -7 97 -59 100 -129zM115 -222c186 2 339 190 348 366c-136 -33 -448 -111 -448 -289c0 -63 47 -77 100 -77zM205 204c40 0 98 43 132 74c-20 -4 -40 -12 -66 -25c-12 -6 -68 -36 -68 -49h2z" />
    <glyph glyph-name="scaron" unicode="&#x161;" horiz-adv-x="157" 
d="M59 293h-1c-16 2 -31 25 -31 41c0 7 4 14 12 14c15 1 15 -10 15 -21c0 -7 1 -14 6 -14s6 6 8 12c2 9 5 19 17 19c7 0 13 -8 13 -15c-2 -16 -23 -36 -39 -36zM160 162l1 1c1 1 3 3 7 3c5 0 10 -6 10 -13c-25 -49 -72 -78 -119 -101c10 -25 18 -54 18 -82
c0 -51 -39 -83 -88 -83c-39 0 -73 22 -73 64c0 56 59 85 104 105h1l7 3l-3 10c-12 36 -26 76 -26 115c0 50 23 68 49 68c20 0 38 -16 38 -39c0 -7 -2 -21 -12 -21c-5 0 -9 5 -9 12c1 3 1 6 1 9c0 12 -9 20 -18 20c-13 0 -27 -14 -27 -49c0 -37 14 -75 28 -109c0 0 1 -3 2 -4
c43 22 87 49 109 91zM-12 -94c35 0 61 23 61 59c0 25 -7 50 -15 76c-3 -1 -6 -1 -10 -5c-36 -17 -89 -41 -89 -85c0 -28 25 -44 53 -45z" />
    <glyph glyph-name="quotedblbase" unicode="&#x201e;" horiz-adv-x="151" 
d="M63 19c7 0 13 -7 13 -14c0 -10 -13 -24 -20 -29c-2 0 -7 3 -7 6c0 2 1 5 4 8c2 2 2 0 3 3c-6 2 -7 6 -7 12c0 7 4 14 14 14zM96 19c8 0 14 -7 14 -14c0 -10 -12 -24 -21 -29c-2 0 -7 4 -7 9c0 0 3 1 2 0c2 3 4 4 5 7c-6 2 -7 7 -7 13c0 7 6 14 14 14z" />
    <glyph glyph-name="quotesinglbase" unicode="&#x201a;" horiz-adv-x="115" 
d="M63 19c7 0 13 -7 13 -14c0 -10 -13 -24 -20 -29c-2 0 -7 3 -7 6c0 2 1 5 4 8c2 2 2 0 3 3c-6 2 -7 6 -7 12c0 7 4 14 14 14z" />
    <glyph glyph-name="ellipsis" unicode="&#x2026;" horiz-adv-x="145" 
d="M41 19c7 0 14 -6 14 -15c-1 -7 -6 -12 -15 -12c-7 0 -13 7 -13 14s7 13 14 13zM79 19c7 0 14 -6 14 -15c-1 -7 -6 -12 -15 -12c-7 0 -13 7 -13 14s7 13 14 13zM114 19c7 0 14 -6 14 -15c-1 -7 -6 -12 -15 -12c-7 0 -13 7 -13 14s7 13 14 13z" />
    <glyph glyph-name="quotedblleft" unicode="&#x201c;" horiz-adv-x="138" 
d="M92 654c-7 0 -13 7 -13 14c0 10 12 24 19 29c3 0 7 -3 7 -9l-3 -3l-3 -5c4 -3 7 -7 7 -12c0 -7 -4 -14 -14 -14zM59 654c-8 0 -14 7 -14 14c0 10 12 24 21 29c2 0 5 -3 5 -9c0 0 -4 -4 -5 -8c6 -2 6 -6 6 -12c0 -7 -4 -14 -13 -14z" />
    <glyph glyph-name="quotedblright" unicode="&#x201d;" horiz-adv-x="134" 
d="M63 697c7 0 13 -7 13 -14c0 -10 -13 -24 -20 -29c-2 0 -7 3 -7 6c0 2 1 5 4 8c2 2 2 0 3 3c-6 2 -7 6 -7 12c0 7 4 14 14 14zM96 697c8 0 14 -7 14 -14c0 -10 -12 -24 -21 -29c-2 0 -7 4 -7 9c0 0 3 1 2 0c2 3 4 4 5 7c-6 2 -7 7 -7 13c0 7 6 14 14 14z" />
    <glyph glyph-name="quoteright" unicode="&#x2019;" horiz-adv-x="97" 
d="M50 697c7 0 13 -7 13 -14c0 -10 -13 -24 -20 -29c-2 0 -7 3 -7 6c0 2 1 5 4 8c2 2 2 0 3 3c-6 2 -7 6 -7 12c0 7 4 14 14 14z" />
    <glyph glyph-name="quoteleft" unicode="&#x2018;" horiz-adv-x="62" 
d="M28 654c-7 0 -13 7 -13 14c0 10 12 24 19 29c3 0 7 -3 7 -9l-3 -3l-3 -5c4 -3 7 -7 7 -12c0 -7 -4 -14 -14 -14z" />
    <glyph glyph-name="cent" unicode="&#xa2;" horiz-adv-x="225" 
d="M59 250v-24h2c20 0 31 -15 31 -33c0 -4 -6 -43 -22 -43c-6 0 -11 3 -9 12c8 12 11 23 11 31c0 7 -3 14 -11 14c-2 0 0 1 -2 0v-183c4 -1 8 -1 12 -1c62 0 129 86 156 138c3 3 5 3 8 3c5 0 10 -4 10 -13c-32 -59 -102 -147 -176 -147c-5 0 -6 -1 -10 0v-19
c0 -3 -4 -6 -8 -6s-8 3 -8 6v23c-39 14 -52 60 -52 100c0 31 12 99 52 115v25c0 5 4 7 8 7c5 0 6 -2 8 -5zM19 109c0 -26 5 -60 24 -77v166c-17 -21 -24 -70 -24 -89z" />
    <glyph glyph-name="yen" unicode="&#xa5;" horiz-adv-x="467" 
d="M441 -55c6 0 8 -7 8 -14s-3 -13 -8 -14c-37 -1 -86 -1 -123 -1c-41 -88 -103 -147 -194 -147c-76 0 -128 58 -128 134c0 7 0 15 10 15c5 0 9 -4 9 -8v-8c0 -65 42 -113 108 -113c75 0 127 50 165 127c-48 1 -98 2 -145 2c-5 0 -9 6 -9 12c0 7 3 15 10 15
c26 0 52 -1 79 -1h77c11 25 17 47 26 75c-58 1 -116 2 -173 2c-5 0 -9 7 -9 13c0 7 3 15 10 15c60 -1 118 -2 180 -2c27 109 41 243 54 353c4 35 0 11 4 43c-37 -138 -106 -344 -248 -344c-96 0 -117 100 -117 177c0 87 33 286 59 286c5 0 9 -3 9 -12
c-14 -44 -41 -164 -41 -266c0 -60 9 -166 90 -166c143 0 207 243 250 408c11 41 22 81 31 107c1 2 4 3 8 3c7 0 10 -6 10 -11c-12 -49 -20 -125 -28 -211c-11 -116 -24 -252 -53 -367c29 0 60 0 89 1c6 0 8 -7 8 -14s-3 -13 -8 -14c-29 -1 -67 -1 -96 -1
c-7 -25 -16 -52 -25 -75c36 0 75 0 111 1z" />
    <glyph glyph-name="Ydieresis" unicode="&#x178;" horiz-adv-x="467" 
d="M236 674h1c7 -1 12 -7 12 -14s-4 -13 -13 -13c-7 0 -14 4 -14 13c0 8 7 14 14 14zM269 674h1c5 -1 12 -6 12 -13s-4 -14 -13 -14c-7 0 -14 4 -14 13c0 8 7 14 14 14zM424 630v1c1 4 5 5 9 5c7 0 10 -6 10 -11c-12 -49 -20 -124 -28 -210c-26 -270 -62 -646 -290 -646
c-77 0 -129 58 -129 134c0 7 0 15 10 15c5 0 9 -4 9 -8v-8c0 -65 42 -113 108 -113c200 0 237 352 266 614l6 50c-36 -137 -105 -354 -251 -354c-96 0 -117 100 -117 177c0 87 33 286 59 286c5 0 9 -3 9 -12c-14 -44 -41 -164 -41 -266c0 -60 9 -166 90 -166
c143 0 207 243 250 408c11 41 21 78 30 104z" />
    <glyph glyph-name="oe" unicode="&#x153;" horiz-adv-x="434" 
d="M437 161l1 1c1 1 5 3 8 3c5 0 9 -6 9 -13c-29 -56 -97 -119 -165 -119c-51 0 -76 33 -79 80c-22 -25 -50 -42 -85 -43c-5 0 -8 0 -12 1c-14 -24 -35 -41 -64 -41c-43 0 -65 37 -65 76c0 18 13 74 40 74c5 0 9 -7 9 -15c-14 -13 -21 -36 -21 -58c0 -29 12 -58 38 -58
c19 0 30 13 38 29c-38 18 -59 66 -59 105c0 30 13 55 43 55c48 0 59 -56 59 -92c0 -19 -3 -39 -9 -56h3c39 0 70 27 89 59l-1 -1c9 49 41 94 80 94c17 0 28 -13 28 -29c0 -40 -48 -58 -81 -67c-2 -10 -2 -22 -2 -31c0 -33 13 -63 51 -63c58 0 121 59 147 109zM100 95l-5 -3
c7 18 10 39 10 57c0 22 -6 69 -34 69c-14 0 -22 -14 -22 -35c0 -32 18 -75 51 -88zM294 223c-19 0 -37 -25 -47 -55c24 7 56 22 56 45c0 6 -3 10 -9 10z" />
    <glyph glyph-name="OE" unicode="&#x152;" horiz-adv-x="735" 
d="M737 160l1 1c2 2 5 2 7 2c5 0 10 -4 10 -13c-61 -115 -165 -232 -307 -232c-114 0 -161 71 -161 160c0 10 0 22 1 32c-34 -59 -82 -102 -146 -102c-108 0 -146 119 -146 209c0 67 19 147 50 213c-2 13 -2 28 -2 43c0 90 40 191 146 191c120 0 171 -124 171 -265
c0 -34 -5 -83 -15 -133c21 32 45 62 77 86c-47 22 -68 66 -68 114c0 121 115 187 225 187c20 0 104 -11 104 -33c0 -7 -4 -10 -13 -10c-29 16 -61 24 -93 24c-96 0 -195 -62 -195 -166c0 -42 19 -81 61 -101c39 26 82 41 128 41c26 -2 39 -8 39 -26c0 -34 -69 -48 -107 -48
c-20 0 -40 2 -58 8c-80 -61 -131 -171 -131 -263c0 -78 37 -142 132 -142c133 0 231 112 290 223zM141 27c144 0 192 261 192 372c0 130 -42 245 -143 245c-93 0 -128 -88 -128 -170c0 -9 -1 -6 0 -15c24 41 56 77 94 101c5 0 10 -5 10 -10v-5c-41 -26 -75 -74 -98 -124
c13 -74 55 -144 122 -183c1 -1 2 -4 2 -7c0 -5 -3 -9 -12 -9c-62 38 -106 99 -125 167c-21 -57 -31 -115 -31 -170c0 -76 20 -191 117 -192zM572 388c-38 0 -72 -10 -104 -30c11 -3 23 -5 36 -5c34 0 88 13 88 29c0 4 -7 6 -20 6z" />
    <glyph glyph-name="o" unicode="o" horiz-adv-x="218" 
d="M219 159c2 4 5 4 9 4c5 0 9 -4 9 -13c-21 -42 -60 -79 -111 -80c-5 0 -8 0 -12 1c-14 -24 -35 -41 -64 -41c-43 0 -65 37 -65 76c0 18 13 74 40 74c5 0 9 -7 9 -15c-14 -13 -21 -36 -21 -58c0 -29 12 -58 38 -58c19 0 30 13 38 29c-38 18 -59 66 -59 105
c0 30 13 55 43 55c48 0 59 -56 59 -92c0 -19 -3 -39 -9 -56h3c42 0 75 33 93 69zM100 95l-5 -3c7 18 10 39 10 57c0 22 -6 69 -34 69c-14 0 -22 -14 -22 -35c0 -32 18 -75 51 -88z" />
    <glyph glyph-name="p" unicode="p" horiz-adv-x="235" 
d="M236 159l1 1c1 1 3 3 7 3c5 0 10 -4 10 -13c-24 -46 -73 -75 -118 -94c-12 -41 -37 -77 -70 -77c-18 0 -32 12 -32 30c0 31 39 46 67 56c4 2 8 3 11 4c4 20 6 42 6 59c0 27 -4 48 -12 48c-20 0 -51 -40 -87 -99c-5 -87 -33 -456 -149 -456c-29 0 -35 25 -35 48
c0 70 79 263 157 395c0 9 1 26 1 34c1 43 1 79 17 79c7 0 14 -4 14 -14l-2 -50c33 50 64 82 84 82c28 0 40 -33 40 -73c0 -13 -1 -26 -4 -40c37 18 75 39 94 77zM-131 -360c89 0 114 295 120 385c-68 -126 -135 -295 -135 -357c0 -12 2 -28 15 -28zM66 -2c17 0 30 20 39 47
c-1 -1 1 0 0 0h1c-18 -7 -53 -19 -53 -36c0 -7 6 -11 13 -11z" />
    <glyph glyph-name="z" unicode="z" horiz-adv-x="211" 
d="M213 160l1 1c1 1 5 3 7 3c5 0 10 -4 10 -13c-19 -36 -44 -69 -75 -104c2 -11 1 -24 1 -40c0 -156 -87 -483 -242 -483c-56 0 -75 47 -75 95c0 143 114 253 216 355c26 25 50 49 72 73c-5 42 -19 68 -43 68c-4 0 -9 -2 -15 -5c-7 -3 -15 -7 -24 -7c-4 0 -8 2 -8 7
c0 4 8 14 17 30c19 29 47 75 48 97c0 3 -2 6 -4 7c-23 -2 -48 -43 -66 -72c-11 -18 -21 -35 -28 -35c-5 0 -9 4 -9 13c15 30 63 113 103 113c18 0 32 -8 32 -28c0 -32 -30 -70 -53 -100h11c31 0 52 -23 62 -63c25 29 46 56 62 88zM-86 -457c141 0 216 339 216 471v5l-58 -57
c-99 -97 -213 -210 -213 -343c0 -37 13 -76 55 -76z" />
    </font>
</defs>
</svg>
